Loading...
Error

Полтергейст / Poltergeist (Гил Кинан) [2015 г., ужасы, триллер, HDTVRip] Dub (Line)

Статистика раздачи
Размер:  1,37 GB   |    Зарегистрирован:  1 год 5 месяцев   |    Скачан:  46 раз

Полного источника не было: 1 день 15 часов

Сидов:  0  |  0 KB/s  ]   Личеров:  0  |  0 KB/s  ]

* - сиды/пиры с внешних источников

   
 
Автор Сообщение

makkol Пол:Муж

25-Июн-2015 22:20

Полтергейст / Poltergeist
«Они знают, чего ты боишься»


Год выпуска: 2015
Жанр: ужасы, триллер
Страна: США , Канада (Metro-Goldwyn-Mayer (MGM), Ghost House Pictures)
Режиссер: Гил Кинан
В ролях: Сэм Рокуэлл, Розмари ДеУитт, Саксон Шарбино, Кайл Кэтлетт, Кеннеди Клементс, Джаред Харрис, Джейн Адамс, Сьюзэн Хэйард, Николас Браун, Карен Ивани
Сюжет фильма:
Когда страшные призраки забирают младшую дочь, семье приходится объединиться, чтобы спасти ее…

  • Мировая премьера: 18 мая 2015
  • Российская премьера: 18 июня 2015


Качество видео: HDTVRip

Продолжительность: 01:33:39
Формат: AVI
Видео: XviD, 720x304, 23.976 fps, 1952 kbps
Аудио: русский, дублированный (чистый звук), AC3 2.0, 48.0 kHz, 128 kbps

Примечание: Присутствует около 4 минут вставок звука с CAMRip.

Код:

Общее
Полное имя : Poltergeist.2015.D.HDTVRip.avi
Формат : AVI
Формат/Информация : Audio Video Interleave
Размер файла : 1,37 Гбайт
Продолжительность : 1 ч. 33 м.
Общий поток : 2089 Кбит/сек
Режиссёр : Carl Gaus
Программа кодирования : VirtualDubMod 1.5.10.3 | (build 2550/release)

Видео
Идентификатор : 0
Формат : MPEG-4 Visual
Профиль формата : Advanced Simple@L5
Параметр BVOP формата : 2
Параметр QPel формата : Нет
Параметр GMC формата : Без точки перехода
Параметр матрицы формата : Default (MPEG)
Идентификатор кодека : XVID
Идентификатор кодека/Подсказка : XviD
Продолжительность : 1 ч. 33 м.
Битрейт : 1952 Кбит/сек
Ширина : 720 пикселей
Высота : 304 пикселя
Соотношение сторон : 2,35:1
Частота кадров : 23,976 кадра/сек
Цветовое пространство : YUV
Субдискретизация насыщенности : 4:2:0
Битовая глубина : 8 бит
Тип развёртки : Прогрессивная
Метод сжатия : С потерями
Бит/(Пиксели*Кадры) : 0.372
Размер потока : 1,28 Гбайт (93%)
Библиотека кодирования : XviD 1.2.1 (UTC 2008-12-04)

Аудио
Идентификатор : 1
Формат : AC-3
Формат/Информация : Audio Coding 3
Расширение режима : CM (complete main)
Параметр Endianness формата : Big
Идентификатор кодека : 2000
Продолжительность : 1 ч. 33 м.
Вид битрейта : Постоянный
Битрейт : 128 Кбит/сек
Каналы : 2 канала
Расположение каналов : Front: L R
Частота : 48,0 КГц
Метод сжатия : С потерями
Размер потока : 85,7 Мбайт (6%)
Выравнивание : Разделение по промежуткам
Продолжительность промежутка : 42 мс. (1,00 видеокадр)
Время предзагрузки промежутка : 500 мс.
Сэмпл

Релиз группы:

picpicpicpicpic
Для увеличения картинки щелкните мышкой по превью

Этот торрент недоступен для скачивания без регистрации, однако доступен по публичной magnet-ссылке (источники с публичных трекеров). Перед использованием ссылки прочтите, пожалуйста Пользовательское соглашение, а также как можно дольше оставайтесь на раздаче! Для того, чтобы скачать сам торрент-файл (который видит больше источников), а также для того, чтобы поблагодарить релизера, вам необходимо зарегистрироваться. Если регистрироваться лень - вы можете также попробовать скачать релиз по нашим партнерским ссылкам ниже.

[underverse.su].t55509.torrent
Трекер: Зарегистрирован   [ 25.06.2015 22:20 ]  

Статус: T временная (by Ведьмочка at 28.06.2015 11:50)
Поблагодарили: 1 человек
Тип торрента: публичный - доступные источники с открытых трекеров: 
Размер: 1,37 GB (занимает 0,31 DVDR, для записи нужно 1 болванка DVDR/RW)
 
 
Похожие темы
Форум Тема Автор Торрент Отв. Посл. сооб.
T Зарубежное кино [DVDRip, Low-Res HDRip, и т.д.] Полтергейст / Poltergeist (Гил Кинан) [2015 г., ужасы, триллер, HDTVRip] Dub (звук с CAMRip) + Original makkol
2 | 0

0 | 538

12

22.06.2015 09:09

Зарубежное кино [DVDRip, Low-Res HDRip, и т.д.] Полтергейст / Неприглашенные / The Uninvited / Victim of the Haunt (Ларри Шоу) [1996 г., ужасы, триллер, DVDRip] VO + Original makkol
1 | 6

0 | 662

3

23.07.2015 12:20

T Зарубежное кино [DVDRip, Low-Res HDRip, и т.д.] Полтергейст (Расширенная версия) / Poltergeist (Extended Cut) (Гил Кинан) [2015 г., ужасы, триллер, WEB-DLRip] Dub makkol
23 | 0

0 | 423

16

04.09.2015 14:00

Зарубежное кино [DVD / HDDVD / BD / Remux] Полтергейст / Poltergeist (Гил Кинан) [2015 г., ужасы, триллер, Blu-Ray Remux] Extended Cut | iTunes | Dub (Rus) + Dub (Ukr) + Original + Subs ultarasbarcelona
3 | 0

0 | 1002

9

18.09.2015 17:45

Зарубежное кино [HDDVDRip / BDRip / WEB-DL / HDTV 1080/720р] Полтергейст. Трилогия / Poltergeist. Trilogy (Тоб Хупер, Брайан Гибсон, Гэри Шерман) [1982-1988 г., Ужасы, BDRip 720p] MVO (Rus) + AVO (Rus, Либергал, Визгунов) + Original (Eng) + Subs (Rus, Eng) Ведьмочка
1 | 0

0 | 974

7

17.07.2014 09:08

T Зарубежное кино [HDDVDRip / BDRip / WEB-DL / HDTV 1080/720р] Полтергейст / Poltergeist (Гил Кинан) [2015 г., ужасы, триллер, HDTVRip 1080p] Dub (звук с CAMRip) + Original makkol
0 | 0

0 | 534

5

22.06.2015 09:20

T Зарубежное кино [HDDVDRip / BDRip / WEB-DL / HDTV 1080/720р] Полтергейст / Poltergeist (Гил Кинан) [2015 г., ужасы, триллер, HDTVRip 1080p] Dub (Line) + Original makkol
268 | 4

0 | 675

15

25.06.2015 22:35

T Зарубежное кино [HDDVDRip / BDRip / WEB-DL / HDTV 1080/720р] Полтергейст / Poltergeist (Гил Кинан) [2015 г., ужасы, триллер, HDTVRip 720p] Dub (Line) + Original makkol
24 | 0

0 | 500

10

25.06.2015 22:50

T Зарубежное кино [HDDVDRip / BDRip / WEB-DL / HDTV 1080/720р] Полтергейст (Расширенная версия) / Poltergeist (Extended Cut) (Гил Кинан) [2015 г., ужасы, триллер, WEB-DL 720p] Dub makkol
43 | 1

0 | 294

13

04.09.2015 14:11

T Зарубежное кино [HDDVDRip / BDRip / WEB-DL / HDTV 1080/720р] Полтергейст (Расширенная версия) / Poltergeist (Extended Cut) (Гил Кинан) [2015 г., ужасы, триллер, WEB-DL 1080p] Dub makkol
3 | 0

0 | 483

17

04.09.2015 14:23


Яндекс.Метрика powered by Sphinx


В Н И М А Н И Е
Сайт не распространяет и не хранит электронные версии произведений, а лишь бесплатно и без коммерческой выгоды (не требуя взамен платы,
SMS и т.д.) предоставляет доступ к создаваемому пользователями каталогу ссылок на торрент-файлы, которые содержат только списки хеш-сумм.
Убедительная просьба с жалобами обращаться напрямую к пользователю, разместившему торрент файл.

Вверх