Loading...
Error

Карманные Деньги / Milk Money (Ричард Бенжамин) [1994 г., комедия, мелодрама, DVDRip] AVO + MVO

Статистика раздачи
Размер:  1,86 GB   |    Зарегистрирован:  1 год 5 месяцев   |    Скачан:  4 раза

Полного источника не было: 8 месяцев

Сидов:  0  |  0 KB/s  ]   Личеров:  0  |  0 KB/s  ]

* - сиды/пиры с внешних источников

   
 
Автор Сообщение

makkol Пол:Муж

24-Июн-2015 23:31

Карманные Деньги / Milk Money


Год выпуска: 1994
Жанр: комедия, мелодрама
Производство: США [Paramount Pictures, The Kennedy/Marshall Company]
Режиссер: Ричард Бенжамин
В ролях: Мелани Гриффит, Эд Харрис, Майкл Патрик Картер, Малкольм МакДауэлл, Энн Хеч, Кэйси Семашко, Филип Боско, Брайан Кристофер, Адам Лаворна, Кевин Сканнелл, Джессика Уэссон, Маргарет Нэгл, Тони Д. Дэвис, Нэйтан Уильямс, Джулия Монтгомери
Сюжет фильма:
Трое школьных друзей решают отправиться из пригорода в большой и незнакомый город, чтобы потратить с трудом накопленные разным путем деньги на проститутку - уж больно им хочется увидеть голую женщину вживую. Они знакомятся с проституткой Ви, которая после сеанса развозит их по домам. Как назло, её машина ломается и отец одного из парней, принявший её за учителя математики, рвётся помочь ей. Ко всему прочему, она узнаёт, что её сутенёра убили, а украденные им деньги списали на неё и теперь её ищет злодей. Поэтому она принимает решение остаться на какое-то время в этом пригороде и всё ближе и ближе знакомится с отцом-вдовцом и его сынишкой, который увидел в ней не только красавицу, но и потенциальную жену для своего отца и маму для себя.

  • Мировая премьера: 31 августа 1994


Качество видео: DVDRip

Продолжительность: 01:48:36
Формат: AVI
Видео: XviD, 720x416, 23.976 fps, 1859 kbps
Аудио #1: русский, авторский одноголосый закадровый (В.Горчаков), AC3 5.1, 48.0 kHz, 384 kbps
Аудио #2: русский, профессиональный многоголосый закадровый, AC3 2.0, 48.0 kHz, 192 kbps

Код:

Общее
Полное имя                               : Карманные Деньги.avi
Формат                                   : AVI
Формат/Информация                        : Audio Video Interleave
Размер файла                             : 1,86 Гбайт
Продолжительность                        : 1 ч. 48 м.
Общий поток                              : 2444 Кбит/сек
Программа кодирования                    : VirtualDubMod 1.5.4.1 (build 2178/release)
Библиотека кодирования                   : VirtualDubMod build 2178/release

Видео
Идентификатор                            : 0
Формат                                   : MPEG-4 Visual
Профиль формата                          : Simple@L3
Параметр BVOP формата                    : 1
Параметр QPel формата                    : Нет
Параметр GMC формата                     : Без точки перехода
Параметр матрицы формата                 : Выборочная
Идентификатор кодека                     : XVID
Идентификатор кодека/Подсказка           : XviD
Продолжительность                        : 1 ч. 48 м.
Битрейт                                  : 1860 Кбит/сек
Ширина                                   : 720 пикселей
Высота                                   : 416 пикселей
Соотношение сторон                       : 1,731
Частота кадров                           : 23,976 кадра/сек
Цветовое пространство                    : YUV
Субдискретизация насыщенности            : 4:2:0
Битовая глубина                          : 8 бит
Тип развёртки                            : Прогрессивная
Метод сжатия                             : С потерями
Бит/(Пиксели*Кадры)                      : 0.259
Размер потока                            : 1,41 Гбайт (76%)
Библиотека кодирования                   : XviD 1.0.0 RC4 (Hola) (UTC 2004-04-05)

Аудио #1
Идентификатор                            : 1
Формат                                   : AC-3
Формат/Информация                        : Audio Coding 3
Расширение режима                        : CM (complete main)
Параметр Endianness формата              : Big
Идентификатор кодека                     : 2000
Продолжительность                        : 1 ч. 48 м.
Вид битрейта                             : Постоянный
Битрейт                                  : 384 Кбит/сек
Каналы                                   : 6 каналов
Расположение каналов                     : Front: L C R, Side: L R, LFE
Частота                                  : 48,0 КГц
Битовая глубина                          : 16 бит
Метод сжатия                             : С потерями
Задержка видео                           : 400 мс.
Размер потока                            : 299 Мбайт (16%)
Выравнивание                             : Разделение по промежуткам
Продолжительность промежутка             : 96  мс. (2,30 видеокадра)
Время предзагрузки промежутка            : 96  мс.
Язык                                     : Russian

Аудио #2
Идентификатор                            : 2
Формат                                   : AC-3
Формат/Информация                        : Audio Coding 3
Расширение режима                        : CM (complete main)
Параметр Endianness формата              : Big
Идентификатор кодека                     : 2000
Продолжительность                        : 1 ч. 48 м.
Вид битрейта                             : Постоянный
Битрейт                                  : 192 Кбит/сек
Каналы                                   : 2 канала
Расположение каналов                     : Front: L R
Частота                                  : 48,0 КГц
Битовая глубина                          : 16 бит
Метод сжатия                             : С потерями
Задержка видео                           : 400 мс.
Размер потока                            : 149 Мбайт (8%)
Выравнивание                             : Разделение по промежуткам
Продолжительность промежутка             : 96  мс. (2,30 видеокадра)
Время предзагрузки промежутка            : 96  мс.
Язык                                     : Russian
picpicpicpicpic
Для увеличения картинки щелкните мышкой по превью

Этот торрент недоступен для скачивания без регистрации, однако доступен по публичной magnet-ссылке (источники с публичных трекеров). Перед использованием ссылки прочтите, пожалуйста Пользовательское соглашение, а также как можно дольше оставайтесь на раздаче! Для того, чтобы скачать сам торрент-файл (который видит больше источников), а также для того, чтобы поблагодарить релизера, вам необходимо зарегистрироваться. Если регистрироваться лень - вы можете также попробовать скачать релиз по нашим партнерским ссылкам ниже.

[underverse.su].t55494.torrent
Трекер: Зарегистрирован   [ 24.06.2015 23:31 ]  

Статус: проверено (by Паукан at 25.06.2015 19:57)
Поблагодарили: пока никто не поблагодарил...
Тип торрента: публичный - доступные источники с открытых трекеров: 
Размер: 1,86 GB (занимает 0,42 DVDR, для записи нужно 1 болванка DVDR/RW)
 
 
Похожие темы
Форум Тема Автор Торрент Отв. Посл. сооб.
Зарубежное кино [HDDVDRip / BDRip / WEB-DL / HDTV 1080/720р] Карманные Деньги / Milk Money (Ричард Бенжамин) [1994 г., комедия, мелодрама, WEB-DL 720p] MVO + AVO + Original makkol
0 | 0

0 | 474

3

25.06.2015 13:58


Яндекс.Метрика powered by Sphinx


В Н И М А Н И Е
Сайт не распространяет и не хранит электронные версии произведений, а лишь бесплатно и без коммерческой выгоды (не требуя взамен платы,
SMS и т.д.) предоставляет доступ к создаваемому пользователями каталогу ссылок на торрент-файлы, которые содержат только списки хеш-сумм.
Убедительная просьба с жалобами обращаться напрямую к пользователю, разместившему торрент файл.

Вверх