Loading...
Error

Убей меня три раза / Kill Me Three Times (Крив Стендерс) [2014 г., драма, триллер, боевик, HDRip] MVO

Статистика раздачи
Размер:  1,37 GB   |    Зарегистрирован:  1 год 5 месяцев   |    Скачан:  23 раза

Полного источника не было: 3 дня

Сидов:  0  |  0 KB/s  ]   Личеров:  0  |  0 KB/s  ]

* - сиды/пиры с внешних источников

   
 
Автор Сообщение

makkol Пол:Муж

23-Июн-2015 21:51

Убей меня три раза / Kill Me Three Times
«It's Paradise, until everyone gets hurt»


Год выпуска: 2014
Жанр: драма, триллер, боевик
Производство: США , Австралия (Cargo Entertainment, Feisty Dame Productions, Media House Capital)
Режиссер: Крив Стендерс
В ролях: Тереза Палмер, Саймон Пегг, Люк Хемсворт, Алиси Брага, Салливан Степлтон, Каллэн Мулвей, Брайан Браун, Стив Ле Маркванд, Тони Спенсер, Анна Филп
Сюжет фильма:
Молодая женщина, живущая в австралийском городке, является нитью, которая связывает три истории — убийства, шантажа и мести.

  • Мировая премьера: 6 сентября 2014


Качество видео: HDRip

Продолжительность: 01:30:22
Формат: AVI
Видео: XviD, 720х304, 23.976 fps, 1772 kbps
Аудио: русский, любительский многоголосый закадровый (BadCatStudio), AC3 5.1, 48.0 kHz, 384 kbps

Код:

Формат : AVI
Формат/Информация : Audio Video Interleave
Размер файла : 1,37 Гбайт
Продолжительность : 1 ч. 30 м.
Общий поток : 2165 Кбит/сек
Программа кодирования : VirtualDubMod 1.5.10.2 (build 2540/release)
Библиотека кодирования : VirtualDubMod build 2540/release

Видео
Идентификатор : 0
Формат : MPEG-4 Visual
Профиль формата : Advanced Simple@L5
Параметр BVOP формата : 2
Параметр QPel формата : Нет
Параметр GMC формата : Без точки перехода
Параметр матрицы формата : Default (MPEG)
Идентификатор кодека : XVID
Идентификатор кодека/Подсказка : XviD
Продолжительность : 1 ч. 30 м.
Битрейт : 1772 Кбит/сек
Ширина : 720 пикселей
Высота : 304 пикселя
Соотношение сторон : 2,35:1
Частота кадров : 23,976 кадра/сек
Цветовое пространство : YUV
Субдискретизация насыщенности : 4:2:0
Битовая глубина : 8 бит
Тип развёртки : Прогрессивная
Метод сжатия : С потерями
Бит/(Пиксели*Кадры) : 0.338
Размер потока : 1,12 Гбайт (82%)
Библиотека кодирования : XviD 1.2.1 (UTC 2008-12-04)

Аудио
Идентификатор : 1
Формат : AC-3
Формат/Информация : Audio Coding 3
Расширение режима : CM (complete main)
Параметр Endianness формата : Big
Идентификатор кодека : 2000
Продолжительность : 1 ч. 30 м.
Вид битрейта : Постоянный
Битрейт : 384 Кбит/сек
Каналы : 6 каналов
Расположение каналов : Front: L C R, Side: L R, LFE
Частота : 48,0 КГц
Битовая глубина : 16 бит
Метод сжатия : С потерями
Размер потока : 248 Мбайт (18%)
Выравнивание : Разделение по промежуткам
Продолжительность промежутка : 42 мс. (1,00 видеокадр)
Время предзагрузки промежутка : 500 мс.
Сэмпл

picpicpicpicpic
Для увеличения картинки щелкните мышкой по превью

Этот торрент недоступен для скачивания без регистрации, однако доступен по публичной magnet-ссылке (источники с публичных трекеров). Перед использованием ссылки прочтите, пожалуйста Пользовательское соглашение, а также как можно дольше оставайтесь на раздаче! Для того, чтобы скачать сам торрент-файл (который видит больше источников), а также для того, чтобы поблагодарить релизера, вам необходимо зарегистрироваться. Если регистрироваться лень - вы можете также попробовать скачать релиз по нашим партнерским ссылкам ниже.

[underverse.su].t55465.torrent
Трекер: Зарегистрирован   [ 23.06.2015 21:51 ]  

Статус: проверено (by Паукан at 24.06.2015 08:16)
Поблагодарили: 2 человека
Тип торрента: публичный - доступные источники с открытых трекеров: 
Размер: 1,37 GB (занимает 0,31 DVDR, для записи нужно 1 болванка DVDR/RW)
 
 
Похожие темы
Форум Тема Автор Торрент Отв. Посл. сооб.
Зарубежное кино [DVDRip, Low-Res HDRip, и т.д.] Убей меня / Kill Me (Эмили Атеф) [2012 г., драма, DVDRip] DVO [DeadSno & den904] Паукан
1 | 0

0 | 818

2

08.04.2013 09:53

Зарубежное кино [DVDRip, Low-Res HDRip, и т.д.] Убей меня нежно / Killing Me Softly (Чен Кайге / Chen Kaige) [2002 г., драма, любовный роман, триллер, BDRip] DVO + Original 90ytr90
13 | 2

0 | 289

2

13.09.2013 07:40

Зарубежное кино [DVDRip, Low-Res HDRip, и т.д.] Убей меня нежно / Killing Me Softly (Чен Кайге / Chen Kaige) [2002 г., драма, любовный роман, триллер, HDRip] DVO + Original 90ytr90
0 | 0

0 | 1135

8

13.09.2013 08:02

Зарубежное кино [DVDRip, Low-Res HDRip, и т.д.] Убей меня три раза / Kill Me Three Times (Крив Стендерс) [2014 г., боевик, триллер, WEB-DLRip] VO [PashaUp] Паукан
13 | 2

0 | 474

20

31.03.2015 15:09

Зарубежное кино [DVDRip, Low-Res HDRip, и т.д.] Убей меня трижды / Убей меня три раза / Kill Me Three Times (Крив Стендерс) [2014 г., боевик, триллер, HDRip] MVO + Original makkol
8 | 0

0 | 515

46

06.10.2015 13:51

Зарубежное кино [HDDVDRip / BDRip / WEB-DL / HDTV 1080/720р] Убей меня три раза / Kill Me Three Times (Крив Стендерс) [2014 г., боевик, триллер, WEB-DL 720p] VO [PashaUp] + Original + Sub (Eng) Паукан
1 | 0

1 | 620

26

01.04.2015 17:49

Зарубежное кино [HDDVDRip / BDRip / WEB-DL / HDTV 1080/720р] Убей меня три раза / Kill Me Three Times (Крив Стендерс) [2014 г., драма, триллер, боевик, BDRip 720p] MVO + VO + Original makkol
5 | 0

0 | 377

4

23.06.2015 22:08

Зарубежное кино [HDDVDRip / BDRip / WEB-DL / HDTV 1080/720р] Убей меня три раза / Kill Me Three Times (Крив Стендерс) [2014 г., драма, триллер, боевик, BDRip 1080p] MVO + VO + Original makkol
23 | 0

0 | 381

3

23.06.2015 22:23

Зарубежное кино [HDDVDRip / BDRip / WEB-DL / HDTV 1080/720р] Убей меня трижды / Убей меня три раза / Kill Me Three Times (Крив Стендерс) [2014 г., боевик, триллер, BDRip 720p] MVO + Original + Subs makkol
14 | 0

0 | 376

19

06.10.2015 14:21

Зарубежное кино [HDDVDRip / BDRip / WEB-DL / HDTV 1080/720р] Убей меня трижды / Убей меня три раза / Kill Me Three Times (Крив Стендерс) [2014 г., боевик, триллер, BDRip 1080p] MVO + Original makkol
3 | 0

0 | 536

20

06.10.2015 14:34


Яндекс.Метрика powered by Sphinx


В Н И М А Н И Е
Сайт не распространяет и не хранит электронные версии произведений, а лишь бесплатно и без коммерческой выгоды (не требуя взамен платы,
SMS и т.д.) предоставляет доступ к создаваемому пользователями каталогу ссылок на торрент-файлы, которые содержат только списки хеш-сумм.
Убедительная просьба с жалобами обращаться напрямую к пользователю, разместившему торрент файл.

Вверх