Loading...
Error

Исчезающий иллюзионист / Dirk Ohm - Illusjonisten som forsvant (Бобби Пирс ) [2015 г., драма, детектив, WEB-DLRip] MVO

Статистика раздачи
Размер:  1,46 GB   |    Зарегистрирован:  1 год 5 месяцев   |    Скачан:  26 раз

Полного источника не было: 9 месяцев

Сидов:  0  |  0 KB/s  ]   Личеров:  0  |  0 KB/s  ]

* - сиды/пиры с внешних источников

   
 
Автор Сообщение

makkol Пол:Муж

23-Июн-2015 15:08

Исчезающий иллюзионист / Dirk Ohm - Illusjonisten som forsvant


Год выпуска: 2015
Жанр: драма, детектив
Производство: Норвегия, Film i Väst, Mer Film, Migma Film AB
Режиссер: Бобби Пирс
В ролях: Аугуст Диль, Сара Йорт Дитлевсен, Джо Адриан Хаавинд, Ёрген Лангхелле, Александра Рапапорт, Ингвар Эггерт Сигюрдссон
Сюжет фильма:
Немецкий иллюзионист Дирк Ом приезжает в городок Гронг, что на севере Норвегии. Его жители обеспокоены исчезновением молодой девушки Марии, и приезжий гость помогает им найти пропавшую. Оказывается так, что Дирк Ом влюбляется в Марию, и, пережидая ночь в местном отеле, воображает, будто они вместе. Чем дальше продвигаются поиски, тем насущнее становится для Дирка вопрос — как отличить иллюзию от реальности?

  • Мировая премьера: 27 марта 2015


Перевод: Станислав Бельков
Озвучивание: Den904 & DeadSno и Datynet

Качество видео: WEB-DLRip

Продолжительность: 01:27:31
Формат: AVI
Видео: XviD, 720x304, 25.000 fps, 1900 kbps
Аудио: русский, любительский многоголосый закадровый, AC3 5.1, 48.0 kHz, 384 kbps

Код:

Общее
Полное имя : Izchezayshiy.illuzionist.2015.L.WEB-DLRip.NNM-CLUB.avi
Формат : AVI
Формат/Информация : Audio Video Interleave
Размер файла : 1,46 Гбайт
Продолжительность : 1 ч. 27 м.
Общий поток : 2384 Кбит/сек
Программа кодирования : VirtualDubMod 1.5.10.2 (build 2540/release)
Библиотека кодирования : VirtualDubMod build 2540/release

Видео
Идентификатор : 0
Формат : MPEG-4 Visual
Профиль формата : Advanced Simple@L5
Параметр BVOP формата : 2
Параметр QPel формата : Нет
Параметр GMC формата : Без точки перехода
Параметр матрицы формата : Выборочная
Идентификатор кодека : XVID
Идентификатор кодека/Подсказка : XviD
Продолжительность : 1 ч. 27 м.
Битрейт : 1990 Кбит/сек
Ширина : 720 пикселей
Высота : 304 пикселя
Соотношение сторон : 2,35:1
Частота кадров : 25,000 кадров/сек
Цветовое пространство : YUV
Субдискретизация насыщенности : 4:2:0
Битовая глубина : 8 бит
Тип развёртки : Прогрессивная
Метод сжатия : С потерями
Бит/(Пиксели*Кадры) : 0.364
Размер потока : 1,22 Гбайт (83%)
Библиотека кодирования : XviD 1.2.1 (UTC 2008-12-04)

Аудио
Идентификатор : 1
Формат : AC-3
Формат/Информация : Audio Coding 3
Расширение режима : CM (complete main)
Параметр Endianness формата : Big
Идентификатор кодека : 2000
Продолжительность : 1 ч. 27 м.
Вид битрейта : Постоянный
Битрейт : 384 Кбит/сек
Каналы : 6 каналов
Расположение каналов : Front: L C R, Side: L R, LFE
Частота : 48,0 КГц
Битовая глубина : 16 бит
Метод сжатия : С потерями
Размер потока : 240 Мбайт (16%)
Выравнивание : Разделение по промежуткам
Продолжительность промежутка : 40 мс. (1,00 видеокадр)
Время предзагрузки промежутка : 500 мс.
Сэмпл

picpicpicpicpic
Для увеличения картинки щелкните мышкой по превью

Этот торрент недоступен для скачивания без регистрации, однако доступен по публичной magnet-ссылке (источники с публичных трекеров). Перед использованием ссылки прочтите, пожалуйста Пользовательское соглашение, а также как можно дольше оставайтесь на раздаче! Для того, чтобы скачать сам торрент-файл (который видит больше источников), а также для того, чтобы поблагодарить релизера, вам необходимо зарегистрироваться. Если регистрироваться лень - вы можете также попробовать скачать релиз по нашим партнерским ссылкам ниже.

[underverse.su].t55458.torrent
Трекер: Зарегистрирован   [ 23.06.2015 15:08 ]  

Статус: проверено (by Паукан at 24.06.2015 08:16)
Поблагодарили: пока никто не поблагодарил...
Тип торрента: публичный - доступные источники с открытых трекеров: 
Размер: 1,46 GB (занимает 1/3 DVDR, для записи нужно 1 болванка DVDR/RW)
 
 

Яндекс.Метрика powered by Sphinx


В Н И М А Н И Е
Сайт не распространяет и не хранит электронные версии произведений, а лишь бесплатно и без коммерческой выгоды (не требуя взамен платы,
SMS и т.д.) предоставляет доступ к создаваемому пользователями каталогу ссылок на торрент-файлы, которые содержат только списки хеш-сумм.
Убедительная просьба с жалобами обращаться напрямую к пользователю, разместившему торрент файл.

Вверх