Loading...
Error

Хозяин джунглей / El Ardor (Пабло Фендрик) [2014 г., драма, вестерн, HDRip] MVO (Line)

Статистика раздачи
Размер:  1,37 GB   |    Зарегистрирован:  1 год 5 месяцев   |    Скачан:  11 раз

Полного источника не было: 10 месяцев

Сидов:  0  |  0 KB/s  ]   Личеров:  0  |  0 KB/s  ]

* - сиды/пиры с внешних источников

   
 
Автор Сообщение

makkol Пол:Муж

23-Июн-2015 14:34

Хозяин джунглей / El Ardor
«Не становись на его пути»


Год выпуска: 2014
Жанр: драма, вестерн
Выпущено: Аргентина , Мексика , Бразилия , Франция , США
Режиссер: Пабло Фендрик
В ролях: Гаэль Гарсиа Берналь, Алиси Брага, Чико Диаз, Клаудио Толькачир, Хорхе Сесан, Иван Стейнхардт, Хулиан Тельо, Лаутаро Вило
Сюжет фильма:
В далеких джунглях реки Параны творится беззаконие. Группа вооруженных наемников терроризирует население, насильно заставляя отказываться от участков земли в их пользу. Местным жителям не у кого искать помощи кроме духов реки. После проведения священного обряда из джунглей появляется таинственный молодой человек, который говорит, что он пришел помочь.

  • Мировая премьера: 19 мая 2014
  • Российская премьера: 7 мая 2015


Качество видео: HDRip

Продолжительность: 01:36:10
Формат: AVI
Видео: XviD, 720x304, 25.000 fps, 1884 kbps
Аудио: русский, профессиональный многоголосый закадровый (чистый звук), AC3 2.0, 48.0 kHz, 128 kbps

Код:

Общее
Полное имя : Х0zyain.dzhungley.2014.P.HDRip.1400Mb.avi
Формат : AVI
Формат/Информация : Audio Video Interleave
Размер файла : 1,37 Гбайт
Продолжительность : 1 ч. 36 м.
Общий поток : 2021 Кбит/сек
Программа кодирования : VirtualDubMod 1.5.10.3 | www.virtualdub-fr.org || (build 2550/release)
Библиотека кодирования : VirtualDubMod build 2550/release

Видео
Идентификатор : 0
Формат : MPEG-4 Visual
Профиль формата : Advanced Simple@L5
Параметр BVOP формата : 2
Параметр QPel формата : Нет
Параметр GMC формата : Без точки перехода
Параметр матрицы формата : Default (MPEG)
Идентификатор кодека : XVID
Идентификатор кодека/Подсказка : XviD
Продолжительность : 1 ч. 36 м.
Битрейт : 1884 Кбит/сек
Ширина : 720 пикселей
Высота : 304 пикселя
Соотношение сторон : 2,35:1
Частота кадров : 25,000 кадров/сек
Цветовое пространство : YUV
Субдискретизация насыщенности : 4:2:0
Битовая глубина : 8 бит
Тип развёртки : Прогрессивная
Метод сжатия : С потерями
Бит/(Пиксели*Кадры) : 0.344
Размер потока : 1,27 Гбайт (93%)
Библиотека кодирования : XviD 1.2.1 (UTC 2008-12-04)

Аудио
Идентификатор : 1
Формат : AC-3
Формат/Информация : Audio Coding 3
Расширение режима : CM (complete main)
Параметр Endianness формата : Big
Идентификатор кодека : 2000
Продолжительность : 1 ч. 36 м.
Вид битрейта : Постоянный
Битрейт : 128 Кбит/сек
Каналы : 2 канала
Расположение каналов : Front: L R
Частота : 48,0 КГц
Битовая глубина : 16 бит
Метод сжатия : С потерями
Размер потока : 88,5 Мбайт (6%)
Выравнивание : Разделение по промежуткам
Продолжительность промежутка : 40 мс. (1,00 видеокадр)
Время предзагрузки промежутка : 500 мс.
Сэмпл

picpicpicpicpic
Для увеличения картинки щелкните мышкой по превью

Этот торрент недоступен для скачивания без регистрации, однако доступен по публичной magnet-ссылке (источники с публичных трекеров). Перед использованием ссылки прочтите, пожалуйста Пользовательское соглашение, а также как можно дольше оставайтесь на раздаче! Для того, чтобы скачать сам торрент-файл (который видит больше источников), а также для того, чтобы поблагодарить релизера, вам необходимо зарегистрироваться. Если регистрироваться лень - вы можете также попробовать скачать релиз по нашим партнерским ссылкам ниже.

[underverse.su].t55457.torrent
Трекер: Зарегистрирован   [ 23.06.2015 14:34 ]  

Статус: T временная (by Паукан at 24.06.2015 08:17)
Поблагодарили: пока никто не поблагодарил...
Тип торрента: публичный - доступные источники с открытых трекеров: 
Размер: 1,37 GB (занимает 0,31 DVDR, для записи нужно 1 болванка DVDR/RW)
 
 
Похожие темы
Форум Тема Автор Торрент Отв. Посл. сооб.
Зарубежное кино [DVDRip, Low-Res HDRip, и т.д.] Хозяин джунглей / El Ardor (Пабло Фендрик) [2014 г., драма, вестерн, WEB-DLRip] MVO [Официальный] Паукан
67 | 1

0 | 659

24

13.06.2015 12:00

Зарубежное кино [DVDRip, Low-Res HDRip, и т.д.] Хозяин джунглей / El Ardor (Пабло Фендрик) [2014 г., драма, вестерн, HDRip] MVO makkol
16 | 0

0 | 485

32

15.08.2015 22:52

Зарубежное кино [HDDVDRip / BDRip / WEB-DL / HDTV 1080/720р] Хозяин джунглей / El Ardor (Пабло Фендрик) [2014 г., драма, вестерн, BDRip 720p] MVO + Original makkol
17 | 1

0 | 524

13

15.08.2015 23:03

Зарубежное кино [HDDVDRip / BDRip / WEB-DL / HDTV 1080/720р] Хозяин джунглей / El Ardor (Пабло Фендрик) [2014 г., драма, вестерн, BDRip 1080p] MVO + Original makkol
1 | 0

0 | 632

6

15.08.2015 23:21


Яндекс.Метрика powered by Sphinx


В Н И М А Н И Е
Сайт не распространяет и не хранит электронные версии произведений, а лишь бесплатно и без коммерческой выгоды (не требуя взамен платы,
SMS и т.д.) предоставляет доступ к создаваемому пользователями каталогу ссылок на торрент-файлы, которые содержат только списки хеш-сумм.
Убедительная просьба с жалобами обращаться напрямую к пользователю, разместившему торрент файл.

Вверх