Loading...
Error

Драйвер на ночь / Stretch (Джо Карнахан) [2014 г., боевик, триллер, комедия, HDRip] Dub (Line)

Статистика раздачи
Размер:  1,46 GB   |    Зарегистрирован:  1 год 5 месяцев   |    Скачан:  37 раз
Сидов:  1  |  0 KB/s  ]   Личеров:  0  |  0 KB/s  ]

* - сиды/пиры с внешних источников

   
 
Автор Сообщение

makkol Пол:Муж

22-Июн-2015 15:39

Драйвер на ночь / Stretch
«Фигня случается»


Год выпуска: 2014
Жанр: боевик, триллер, комедия
Производство: США, Blumhouse Productions, IM Global, Universal Pictures
Режиссер: Джо Карнахан
В ролях: Патрик Уилсон, Эд Хелмс, Джеймс Бэдж Дэйл, Бруклин Декер, Джессика Альба, Рэй Лиотта, Дэвид Хассельхофф, Дженни Барбоза, Кевин Бигли, Sydney Bruso
Сюжет фильма:
Невезучему шоферу лимузина до выплаты внушительного долга остается отработать всего одну смену. Его последним клиентом становится загадочный молодой миллиардер, пообещавший небывалые чаевые за несколько дополнительных услуг. В погоне за так нужными ему сейчас деньгами водитель ввязывается в безумные переделки на улицах Лос-Анджелеса, и чем больше ночь опускается на мегаполис, тем более призрачной видится ему надежда остаться в живых…

  • Мировая премьера: 14 октября 2014
  • Российская премьера: 4 июня 2015


Качество видео: HDRip

Продолжительность: 01:34:17
Формат: AVI
Видео: XviD, 720x304, 23.976 fps, 1946 kbps
Аудио: русский, дублированный (чистый звук), MP3 2.0, 44.1 kHz, 256 kbps

Код:

Общее
Полное имя                               : Drajver.na.noch.2014.HDRip.avi
Формат                                   : AVI
Формат/Информация                        : Audio Video Interleave
Размер файла                             : 1,46 Гбайт
Продолжительность                        : 1 ч. 34 м.
Общий поток                              : 2211 Кбит/сек
Программа кодирования                    : VirtualDubMod 1.5.10.2 (build 2540/release)
Библиотека кодирования                   : VirtualDubMod build 2540/release

Видео
Идентификатор                            : 0
Формат                                   : MPEG-4 Visual
Профиль формата                          : Advanced Simple@L5
Параметр BVOP формата                    : 2
Параметр QPel формата                    : Нет
Параметр GMC формата                     : Без точки перехода
Параметр матрицы формата                 : Default (MPEG)
Режим смешивания                         : Сжатый битовый поток
Идентификатор кодека                     : XVID
Идентификатор кодека/Подсказка           : XviD
Продолжительность                        : 1 ч. 34 м.
Битрейт                                  : 1946 Кбит/сек
Ширина                                   : 720 пикселей
Высота                                   : 304 пикселя
Соотношение сторон                       : 2,35:1
Частота кадров                           : 23,976 кадра/сек
Цветовое пространство                    : YUV
Субдискретизация насыщенности            : 4:2:0
Битовая глубина                          : 8 бит
Тип развёртки                            : Прогрессивная
Метод сжатия                             : С потерями
Бит/(Пиксели*Кадры)                      : 0.371
Размер потока                            : 1,28 Гбайт (88%)
Библиотека кодирования                   : XviD 73

Аудио
Идентификатор                            : 1
Формат                                   : MPEG Audio
Версия формата                           : Version 1
Профиль формата                          : Layer 3
Идентификатор кодека                     : 55
Идентификатор кодека/Подсказка           : MP3
Продолжительность                        : 1 ч. 34 м.
Вид битрейта                             : Постоянный
Битрейт                                  : 256 Кбит/сек
Каналы                                   : 2 канала
Частота                                  : 44,1 КГц
Метод сжатия                             : С потерями
Размер потока                            : 173 Мбайт (12%)
Выравнивание                             : Разделение по промежуткам
Продолжительность промежутка             : 42  мс. (1,00 видеокадр)
Время предзагрузки промежутка            : 500  мс.
Сэмпл

picpicpicpicpic
Для увеличения картинки щелкните мышкой по превью

Этот торрент недоступен для скачивания без регистрации, однако доступен по публичной magnet-ссылке (источники с публичных трекеров). Перед использованием ссылки прочтите, пожалуйста Пользовательское соглашение, а также как можно дольше оставайтесь на раздаче! Для того, чтобы скачать сам торрент-файл (который видит больше источников), а также для того, чтобы поблагодарить релизера, вам необходимо зарегистрироваться. Если регистрироваться лень - вы можете также попробовать скачать релиз по нашим партнерским ссылкам ниже.

[underverse.su].t55439.torrent
Трекер: Зарегистрирован   [ 22.06.2015 15:39 ]  

Статус: T временная (by Паукан at 24.06.2015 08:24)
Поблагодарили: 1 человек
Тип торрента: публичный - доступные источники с открытых трекеров: 
Размер: 1,46 GB (занимает 1/3 DVDR, для записи нужно 1 болванка DVDR/RW)
 
 
Похожие темы
Форум Тема Автор Торрент Отв. Посл. сооб.
Зарубежное кино [DVDRip, Low-Res HDRip, и т.д.] Драйвер на ночь / Stretch (Джо Карнахан) [2014 г., боевик, триллер, комедия, HDRip] DVO Паукан
74 | 3

0 | 969

54

24.03.2015 14:52

T Зарубежное кино [HDDVDRip / BDRip / WEB-DL / HDTV 1080/720р] Драйвер на ночь / Stretch (Джо Карнахан) [2014 г., Боевик, Триллер, Комедия, WEB-DL 720p] DVO (RUS, Сладкая парочка) + Original (ENG) + Subs (ENG) Ведьмочка
61 | 0

0 | 1335

36

23.10.2014 22:16

T Зарубежное кино [HDDVDRip / BDRip / WEB-DL / HDTV 1080/720р] Драйвер на ночь / Stretch (Джо Карнахан) [2014 г., боевик, триллер, комедия, BDRip 720p] Dub (Line) + Original makkol
378 | 10

0 | 512

8

22.06.2015 15:52

T Зарубежное кино [HDDVDRip / BDRip / WEB-DL / HDTV 1080/720р] Драйвер на ночь / Stretch (Джо Карнахан) [2014 г., боевик, триллер, комедия, BDRip 1080p] Dub (Line) + Original makkol
0 | 0

0 | 566

11

22.06.2015 16:07


Яндекс.Метрика powered by Sphinx


В Н И М А Н И Е
Сайт не распространяет и не хранит электронные версии произведений, а лишь бесплатно и без коммерческой выгоды (не требуя взамен платы,
SMS и т.д.) предоставляет доступ к создаваемому пользователями каталогу ссылок на торрент-файлы, которые содержат только списки хеш-сумм.
Убедительная просьба с жалобами обращаться напрямую к пользователю, разместившему торрент файл.

Вверх