Loading...
Error

Полтергейст / Poltergeist (Гил Кинан) [2015 г., ужасы, триллер, HDTVRip] Dub (звук с CAMRip) + Original

Статистика раздачи
Размер:  1,47 GB   |    Зарегистрирован:  1 год 5 месяцев   |    Скачан:  12 раз

Полного источника не было: 3 месяца 8 дней

Сидов:  0  |  0 KB/s  ]   Личеров:  0  |  0 KB/s  ]

* - сиды/пиры с внешних источников

   
 
Автор Сообщение

makkol Пол:Муж

22-Июн-2015 09:09

Полтергейст / Poltergeist
«Они знают, чего ты боишься»


Год выпуска: 2015
Жанр: ужасы, триллер
Страна: США , Канада
Режиссер: Гил Кинан
В ролях: Сэм Рокуэлл, Розмари ДеУитт, Саксон Шарбино, Кайл Кэтлетт, Кеннеди Клементс, Джаред Харрис, Джейн Адамс, Сьюзэн Хэйард, Николас Браун, Карен Ивани
Сюжет фильма:
Когда страшные призраки забирают младшую дочь, семье приходится объединиться, чтобы спасти ее…

  • Мировая премьера: 18 мая 2015
  • Российская премьера: 18 июня 2015


Озвучивание: дублированное (звук с CAMRip)

Качество видео: HDTVRip

Продолжительность: 01:33:39
Формат: AVI
Видео: XviD, 720x304, 23.976 fps, 1780 kbps
Аудио #1: русский, дублированный, AC3 2.0, 48.0 kHz, 192 kbps
Аудио #2: английский, оригинал, AC3 5.1, 48.0 kHz, 256 kbps

Код:

Общее
Полное имя                               : Poltergeist.2015.Dc.HDTVRip.avi
Формат                                   : AVI
Формат/Информация                        : Audio Video Interleave
Размер файла                             : 1,47 Гбайт
Продолжительность                        : 1 ч. 33 м.
Общий поток                              : 2242 Кбит/сек
Программа кодирования                    : VirtualDubMod 1.5.10.3 | www.virtualdub-fr.org || (build 2550/release)
Библиотека кодирования                   : VirtualDubMod build 2550/release
Носитель оригинала                       : Poltergeist.2015.SCREENER.XviD.AC3-FGT
Примечание                               : Poltergeist.2015.SCREENER.XviD.AC3-FGT

Видео
Идентификатор                            : 0
Формат                                   : MPEG-4 Visual
Профиль формата                          : Simple@L5
Параметр BVOP формата                    : Нет
Параметр QPel формата                    : Нет
Параметр GMC формата                     : Без точки перехода
Параметр матрицы формата                 : Default (H.263)
Идентификатор кодека                     : XVID
Идентификатор кодека/Подсказка           : XviD
Продолжительность                        : 1 ч. 33 м.
Битрейт                                  : 1780 Кбит/сек
Ширина                                   : 720 пикселей
Высота                                   : 304 пикселя
Соотношение сторон                       : 2,40:1
Частота кадров                           : 23,976 кадра/сек
Цветовое пространство                    : YUV
Субдискретизация насыщенности            : 4:2:0
Битовая глубина                          : 8 бит
Тип развёртки                            : Прогрессивная
Метод сжатия                             : С потерями
Бит/(Пиксели*Кадры)                      : 0.339
Размер потока                            : 1,16 Гбайт (79%)
Библиотека кодирования                   : Lavc56.13.100

Аудио #1
Идентификатор                            : 1
Формат                                   : AC-3
Формат/Информация                        : Audio Coding 3
Расширение режима                        : CM (complete main)
Параметр Endianness формата              : Big
Идентификатор кодека                     : 2000
Продолжительность                        : 1 ч. 33 м.
Вид битрейта                             : Постоянный
Битрейт                                  : 192 Кбит/сек
Каналы                                   : 2 канала
Расположение каналов                     : Front: L R
Частота                                  : 48,0 КГц
Битовая глубина                          : 16 бит
Метод сжатия                             : С потерями
Размер потока                            : 129 Мбайт (9%)
Выравнивание                             : Разделение по промежуткам
Продолжительность промежутка             : 42  мс. (1,00 видеокадр)
Время предзагрузки промежутка            : 500  мс.

Аудио #2
Идентификатор                            : 2
Формат                                   : AC-3
Формат/Информация                        : Audio Coding 3
Расширение режима                        : CM (complete main)
Параметр Endianness формата              : Big
Идентификатор кодека                     : 2000
Продолжительность                        : 1 ч. 33 м.
Вид битрейта                             : Постоянный
Битрейт                                  : 256 Кбит/сек
Каналы                                   : 6 каналов
Расположение каналов                     : Front: L C R, Side: L R, LFE
Частота                                  : 48,0 КГц
Битовая глубина                          : 16 бит
Метод сжатия                             : С потерями
Размер потока                            : 171 Мбайт (11%)
Выравнивание                             : Разделение по промежуткам
Продолжительность промежутка             : 42  мс. (1,00 видеокадр)
Время предзагрузки промежутка            : 500  мс.
Сэмпл

picpicpicpicpic
Для увеличения картинки щелкните мышкой по превью

Этот торрент недоступен для скачивания без регистрации, однако доступен по публичной magnet-ссылке (источники с публичных трекеров). Перед использованием ссылки прочтите, пожалуйста Пользовательское соглашение, а также как можно дольше оставайтесь на раздаче! Для того, чтобы скачать сам торрент-файл (который видит больше источников), а также для того, чтобы поблагодарить релизера, вам необходимо зарегистрироваться. Если регистрироваться лень - вы можете также попробовать скачать релиз по нашим партнерским ссылкам ниже.

[underverse.su].t55429.torrent
Трекер: Зарегистрирован   [ 22.06.2015 09:09 ]  

Статус: T временная (by Паукан at 24.06.2015 08:25)
Поблагодарили: пока никто не поблагодарил...
Тип торрента: публичный - доступные источники с открытых трекеров: 
Размер: 1,47 GB (занимает 0,34 DVDR, для записи нужно 1 болванка DVDR/RW)
 
 
Похожие темы
Форум Тема Автор Торрент Отв. Посл. сооб.
T Зарубежное кино [DVDRip, Low-Res HDRip, и т.д.] Полтергейст / Poltergeist (Гил Кинан) [2015 г., ужасы, триллер, HDTVRip] Dub (Line) makkol
183 | 1

0 | 644

46

25.06.2015 22:20

Зарубежное кино [DVDRip, Low-Res HDRip, и т.д.] Полтергейст / Неприглашенные / The Uninvited / Victim of the Haunt (Ларри Шоу) [1996 г., ужасы, триллер, DVDRip] VO + Original makkol
1 | 6

0 | 660

3

23.07.2015 12:20

T Зарубежное кино [DVDRip, Low-Res HDRip, и т.д.] Полтергейст (Расширенная версия) / Poltergeist (Extended Cut) (Гил Кинан) [2015 г., ужасы, триллер, WEB-DLRip] Dub makkol
23 | 0

0 | 422

16

04.09.2015 14:00

Зарубежное кино [DVD / HDDVD / BD / Remux] Полтергейст / Poltergeist (Гил Кинан) [2015 г., ужасы, триллер, Blu-Ray Remux] Extended Cut | iTunes | Dub (Rus) + Dub (Ukr) + Original + Subs ultarasbarcelona
3 | 0

0 | 997

9

18.09.2015 17:45

Зарубежное кино [HDDVDRip / BDRip / WEB-DL / HDTV 1080/720р] Полтергейст. Трилогия / Poltergeist. Trilogy (Тоб Хупер, Брайан Гибсон, Гэри Шерман) [1982-1988 г., Ужасы, BDRip 720p] MVO (Rus) + AVO (Rus, Либергал, Визгунов) + Original (Eng) + Subs (Rus, Eng) Ведьмочка
1 | 0

0 | 974

7

17.07.2014 09:08

T Зарубежное кино [HDDVDRip / BDRip / WEB-DL / HDTV 1080/720р] Полтергейст / Poltergeist (Гил Кинан) [2015 г., ужасы, триллер, HDTVRip 1080p] Dub (звук с CAMRip) + Original makkol
0 | 0

0 | 533

5

22.06.2015 09:20

T Зарубежное кино [HDDVDRip / BDRip / WEB-DL / HDTV 1080/720р] Полтергейст / Poltergeist (Гил Кинан) [2015 г., ужасы, триллер, HDTVRip 1080p] Dub (Line) + Original makkol
268 | 4

0 | 675

15

25.06.2015 22:35

T Зарубежное кино [HDDVDRip / BDRip / WEB-DL / HDTV 1080/720р] Полтергейст / Poltergeist (Гил Кинан) [2015 г., ужасы, триллер, HDTVRip 720p] Dub (Line) + Original makkol
24 | 0

0 | 500

10

25.06.2015 22:50

T Зарубежное кино [HDDVDRip / BDRip / WEB-DL / HDTV 1080/720р] Полтергейст (Расширенная версия) / Poltergeist (Extended Cut) (Гил Кинан) [2015 г., ужасы, триллер, WEB-DL 720p] Dub makkol
43 | 1

0 | 293

13

04.09.2015 14:11

T Зарубежное кино [HDDVDRip / BDRip / WEB-DL / HDTV 1080/720р] Полтергейст (Расширенная версия) / Poltergeist (Extended Cut) (Гил Кинан) [2015 г., ужасы, триллер, WEB-DL 1080p] Dub makkol
3 | 0

0 | 482

17

04.09.2015 14:23


Яндекс.Метрика powered by Sphinx


В Н И М А Н И Е
Сайт не распространяет и не хранит электронные версии произведений, а лишь бесплатно и без коммерческой выгоды (не требуя взамен платы,
SMS и т.д.) предоставляет доступ к создаваемому пользователями каталогу ссылок на торрент-файлы, которые содержат только списки хеш-сумм.
Убедительная просьба с жалобами обращаться напрямую к пользователю, разместившему торрент файл.

Вверх