Loading...
Error

Том и Томас / Tom & Thomas (Эсме Ламмерс) [2002 г., семейный, приключения, DVDRip] DVO + Original

Статистика раздачи
Размер:  1,47 GB   |    Зарегистрирован:  1 год 5 месяцев   |    Скачан:  1 раз
Сидов:  1  |  0 KB/s  ]   Личеров:  0  |  0 KB/s  ]

* - сиды/пиры с внешних источников

   
 
Автор Сообщение

makkol Пол:Муж

20-Июн-2015 15:35

Том и Томас / Tom & Thomas


Год выпуска: 2002
Жанр: семейный, приключения
Производство: Великобритания , Нидерланды [Cine II CV, First Floor Features]
Режиссер: Эсме Ламмерс
В ролях: Аарон Тейлор-Джонсон, Шон Бин, Индай Ба, Райан Нельсон, Дерек де Линт, Билл Стюарт, Шон Харрис, Джеральдин Джеймс, Ромэйн Фагин, Равин Дж. Ганатра, Виктория Хэстид, Анил Дуглас, Майк Даулинг, Кейт Генри, Доун Мастин, Лу Ландре, Анита Райт, Кристофер Рейвенскрофт, Рэйчил Джозеф
Сюжет фильма:
Действие фильма происходит в Лондоне в канун Рождества. Тротуары покрыты снегом, а в ярко украшенных витринах выставлены подарки и искрящиеся новогодние ёлки.
Девятилетние Том и Томас живут в разных районах города и не знают о существовании друг друга. Но они всегда подозревали, что когда-нибудь встретятся. У Тома есть воображаемый друг Томас, а Томас играет с воображаемым приятелем Томом. Томасу исполняется девять лет, и, чтобы отпраздновать день рождения, он едет на экскурсию в музей науки. И то, что он так долго предчувствовал, сбывается. В грандиозном зеркальном лабиринте Томас лицом к лицу сталкивается с Томом, похожим на него как две капли воды. Томас находит своего пропавшего брата-близнеца, и они обещают друг другу больше никогда не расставаться. Когда Том хочет сбежать из интерната, то становится свидетелем похищения ребёнка. Похитители бросаются в погоню за Томом, но мальчик прячется дома у Томаса. Но злодеи на этом не успокаиваются и решают похитить Тома. Вместо него им удаётся подкараулить Томаса. Похитители решают вывезти его на самолёте за границу, но Том не собирается бросать брата в беде. Они дали обещание никогда не расставаться… Том бросается в погоню, чтобы спасти брата и обрести новую семью...

  • Мировая премьера: 20 января 2002
  • Российская премьера: 19 сентября 2002


Качество видео: DVDRip

Продолжительность: 01:46:53
Формат: MKV
Видео: MPEG-4 AVC, 720x432 (16:9), 25.000 fps, 1577 kbps
Аудио #1: русский, профессиональный двухголосый закадровый, AC3 2.0, 48 kHz, 192 kbps
Аудио #2: английский, оригинал, AC3 2.0, 48 kHz, 192 kbps

Код:

Общее
Уникальный идентификатор                 : 179922894857784169888725434496704316625 (0x875BE39B51E7E71EAC988F829E6004D1)
Полное имя                               : Tom&Thomas.2002.x264.DVDRip.mkv
Формат                                   : Matroska
Версия формата                           : Version 2
Размер файла                             : 1,47 Гбайт
Продолжительность                        : 1 ч. 46 м.
Общий поток                              : 1963 Кбит/сек
Дата кодирования                         : UTC 2012-05-04 06:40:28
Программа кодирования                    : mkvmerge v4.3.0 ('Escape from the Island') сборка от Sep  5 2010 10:30:51
Библиотека кодирования                   : libebml v1.0.0 + libmatroska v1.0.0

Видео
Идентификатор                            : 1
Формат                                   : AVC
Формат/Информация                        : Advanced Video Codec
Профиль формата                          : High@L4.1
Параметр CABAC формата                   : Да
Параметр ReFrames формата                : 16 кадров
Режим смешивания                         : Header stripping
Идентификатор кодека                     : V_MPEG4/ISO/AVC
Продолжительность                        : 1 ч. 46 м.
Битрейт                                  : 1577 Кбит/сек
Ширина                                   : 720 пикселей
Высота                                   : 432 пикселя
Соотношение сторон                       : 16:9
Режим частоты кадров                     : Постоянный
Частота кадров                           : 25,000 кадров/сек
Цветовое пространство                    : YUV
Субдискретизация насыщенности            : 4:2:0
Битовая глубина                          : 8 бит
Тип развёртки                            : Прогрессивная
Бит/(Пиксели*Кадры)                      : 0.203
Размер потока                            : 1,15 Гбайт (78%)
Библиотека кодирования                   : x264 core 120 r2164 da19765
Настройки программы                      : cabac=1 / ref=16 / deblock=1:-1:-1 / analyse=0x3:0x133 / me=umh / subme=10 / psy=1 / psy_rd=1.00:0.15 / mixed_ref=1 / me_range=24 / chroma_me=1 / trellis=2 / 8x8dct=1 / cqm=0 / deadzone=21,11 / fast_pskip=1 / chroma_qp_offset=-3 / threads=6 / sliced_threads=0 / nr=0 / decimate=1 / interlaced=0 / bluray_compat=0 / constrained_intra=0 / bframes=8 / b_pyramid=2 / b_adapt=2 / b_bias=0 / direct=3 / weightb=1 / open_gop=0 / weightp=2 / keyint=250 / keyint_min=25 / scenecut=40 / intra_refresh=0 / rc_lookahead=60 / rc=2pass / mbtree=1 / bitrate=1577 / ratetol=1.0 / qcomp=0.60 / qpmin=0 / qpmax=69 / qpstep=4 / cplxblur=20.0 / qblur=0.5 / vbv_maxrate=50000 / vbv_bufsize=50000 / nal_hrd=none / ip_ratio=1.40 / aq=1:1.00
Язык                                     : English
Default                                  : Да
Forced                                   : Нет

Аудио #1
Идентификатор                            : 2
Формат                                   : AC-3
Формат/Информация                        : Audio Coding 3
Расширение режима                        : CM (complete main)
Параметр Endianness формата              : Big
Идентификатор кодека                     : A_AC3
Продолжительность                        : 1 ч. 46 м.
Вид битрейта                             : Постоянный
Битрейт                                  : 192 Кбит/сек
Каналы                                   : 2 канала
Расположение каналов                     : Front: L R
Частота                                  : 48,0 КГц
Битовая глубина                          : 16 бит
Метод сжатия                             : С потерями
Размер потока                            : 147 Мбайт (10%)
Язык                                     : Russian
Default                                  : Да
Forced                                   : Нет

Аудио #2
Идентификатор                            : 3
Формат                                   : AC-3
Формат/Информация                        : Audio Coding 3
Расширение режима                        : CM (complete main)
Параметр Endianness формата              : Big
Идентификатор кодека                     : A_AC3
Продолжительность                        : 1 ч. 46 м.
Вид битрейта                             : Постоянный
Битрейт                                  : 192 Кбит/сек
Каналы                                   : 2 канала
Расположение каналов                     : Front: L R
Частота                                  : 48,0 КГц
Битовая глубина                          : 16 бит
Метод сжатия                             : С потерями
Размер потока                            : 147 Мбайт (10%)
Язык                                     : English
Default                                  : Нет
Forced                                   : Нет
picpicpicpicpic
Для увеличения картинки щелкните мышкой по превью

Этот торрент недоступен для скачивания без регистрации, однако доступен по публичной magnet-ссылке (источники с публичных трекеров). Перед использованием ссылки прочтите, пожалуйста Пользовательское соглашение, а также как можно дольше оставайтесь на раздаче! Для того, чтобы скачать сам торрент-файл (который видит больше источников), а также для того, чтобы поблагодарить релизера, вам необходимо зарегистрироваться. Если регистрироваться лень - вы можете также попробовать скачать релиз по нашим партнерским ссылкам ниже.

[underverse.su].t55399.torrent
Трекер: Зарегистрирован   [ 20.06.2015 15:35 ]  

Статус: проверено (by Паукан at 22.06.2015 08:08)
Поблагодарили: пока никто не поблагодарил...
Тип торрента: публичный - доступные источники с открытых трекеров: 
Размер: 1,47 GB (занимает 0,33 DVDR, для записи нужно 1 болванка DVDR/RW)
 
 

Яндекс.Метрика powered by Sphinx


В Н И М А Н И Е
Сайт не распространяет и не хранит электронные версии произведений, а лишь бесплатно и без коммерческой выгоды (не требуя взамен платы,
SMS и т.д.) предоставляет доступ к создаваемому пользователями каталогу ссылок на торрент-файлы, которые содержат только списки хеш-сумм.
Убедительная просьба с жалобами обращаться напрямую к пользователю, разместившему торрент файл.

Вверх