Loading...
Error

Призраки Гойи / Goya's Ghosts (Милош Форман) [2006 г., драма, HDTVRip]

Статистика раздачи
Размер:  2,18 GB   |    Зарегистрирован:  6 лет 11 месяцев   |    Скачан:  0 раз

Полного источника не было: 4 года 4 месяца

Сидов:  0  |  0 KB/s  ]   Личеров:  0  |  0 KB/s  ]

* - сиды/пиры с внешних источников

   
 
Автор Сообщение

GUree Пол:Муж

29-Июл-2009 07:14

Призраки Гойи / Goya's Ghosts


Год выпуска: 2006
Жанр: драма
Страна: США , Испания
Режиссер: Милош Форман
В ролях: Хавьер Бардем, Натали Портман, Стеллан Скарсгард, Рэнди Куэйд, Хосе Луис Гомес, Майкл Лонсдэйл, Бланка Портильо

Сюжет фильма: Инесс, музу знаменитого портретиста Франциско Гойи, инквизиция бросает в темницу. В отчаянии живописец просит о помощи своего друга, священника Лоренцо. Их взаимоотношения подвергаются серьезному испытанию, необратимо меняя судьбы всех троих.

  • Мировая премьера: 8 ноября 2006
  • Российская премьера: 10 мая 2007, «West»




Личная оценка: 10 - всем советую (По сей день под впечатлением!!!!)

Качество видео: HDTVRip

Продолжительность: 01:49:03
Видео: кодек: x264, формат: mkv, размер кадра: 1024x560, битрейт: 2042 kbps
Аудио #1: язык: русский, перевод: дублированный (дубляж), кодек: AC3 5.1, битрейт: 384 kbps
Аудио #2: язык: английский, перевод: оригинал, кодек: AC3 5.1, битрейт: 384 kbps
Субтитры #1: тип: вшитые отключаемые, язык: русский, формат: S_TEXT/UTF8
Субтитры #2: тип: вшитые отключаемые, язык: английский, формат: S_TEXT/UTF8

Семпл 1 на multi-up
Семпл 2 на multi-up

Релиз группы:






General
Complete name : Goyas.Ghosts.2006.HDTVRip.AVC.mkv
Format : Matroska
File size : 2.18 GiB
Duration : 1h 49mn
Overall bit rate : 2 868 Kbps
Movie name : -=GUree=-
Encoded date : UTC 2009-12-29 07:56:11
Writing application : mkvmerge v2.9.9 ('Tutu') built on Nov 25 2009 21:13:32
Writing library : libebml v0.7.9 + libmatroska v0.8.1

Video
ID : 1
Format : AVC
Format/Info : Advanced Video Codec
Format profile : High@L4.1
Format settings, CABAC : Yes
Format settings, ReFrames : 8 frames
Muxing mode : Container profile=Unknown@4.1
Codec ID : V_MPEG4/ISO/AVC
Duration : 1h 49mn
Bit rate : 2 043 Kbps
Nominal bit rate : 2 099 Kbps
Width : 1 024 pixels
Height : 560 pixels
Display aspect ratio : 16:9
Frame rate : 25.000 fps
Resolution : 8 bits
Colorimetry : 4:2:0
Scan type : Progressive
Bits/(Pixel*Frame) : 0.142
Stream size : 1.56 GiB (71%)
Writing library : x264 core 79 r1342kMod e8501ef
Encoding settings : cabac=1 / ref=8 / deblock=1:-2:-1 / analyse=0x3:0x113 / me=tesa / subme=10 / psy=1 / psy_rd=1.0:0.4 / mixed_ref=1 / me_range=32 / chroma_me=1 / trellis=2 / 8x8dct=1 / cqm=0 / deadzone=21,11 / chroma_qp_offset=-4 / threads=6 / nr=0 / decimate=0 / mbaff=0 / constrained_intra=0 / bframes=6 / b_pyramid=0 / b_adapt=2 / b_bias=0 / direct=3 / wpredb=1 / wpredp=2 / keyint=250 / keyint_min=25 / scenecut=40 / rc_lookahead=60 / rc=2pass / mbtree=1 / bitrate=2099 / ratetol=1.0 / qcomp=0.60 / qpmin=10 / qpmax=51 / qpstep=4 / cplxblur=20.0 / qblur=0.5 / vbv_maxrate=50000 / vbv_bufsize=50000 / ip_ratio=1.40 / aq=1:1.00
Language : English

Audio #1
ID : 2
Format : AC-3
Format/Info : Audio Coding 3
Codec ID : A_AC3
Duration : 1h 49mn
Bit rate mode : Constant
Bit rate : 384 Kbps
Channel(s) : 6 channels
Channel positions : Front: L C R, Surround: L R, LFE
Sampling rate : 48.0 KHz
Stream size : 300 MiB (13%)
Title : AC3 5.1 384Kb/s
Language : Russian

Audio #2
ID : 3
Format : AC-3
Format/Info : Audio Coding 3
Codec ID : A_AC3
Duration : 1h 49mn
Bit rate mode : Constant
Bit rate : 384 Kbps
Channel(s) : 6 channels
Channel positions : Front: L C R, Surround: L R, LFE
Sampling rate : 48.0 KHz
Stream size : 300 MiB (13%)
Title : AC3 5.1 384Kb/s
Language : English

Text #1
ID : 4
Format : UTF-8
Codec ID : S_TEXT/UTF8
Codec ID/Info : UTF-8 Plain Text
Language : Russian

Text #2
ID : 5
Format : UTF-8
Codec ID : S_TEXT/UTF8
Codec ID/Info : UTF-8 Plain Text
Language : English

Этот торрент недоступен для скачивания без регистрации, однако доступен по публичной magnet-ссылке (источники с публичных трекеров). Перед использованием ссылки прочтите, пожалуйста Пользовательское соглашение, а также как можно дольше оставайтесь на раздаче! Для того, чтобы скачать сам торрент-файл (который видит больше источников), а также для того, чтобы поблагодарить релизера, вам необходимо зарегистрироваться. Если регистрироваться лень - вы можете также попробовать скачать релиз по нашим партнерским ссылкам ниже.

[underverse.su].t4859.torrent
Трекер: Зарегистрирован   [ 29.12.2009 08:58 ]  

Статус: проверено (by GUree at 29.12.2009 09:25)
Поблагодарили: 1 человек
Тип торрента: публичный - доступные источники с открытых трекеров: 
Размер: 2,18 GB (занимает 1/2 DVDR, для записи нужно 1 болванка DVDR/RW)
 
 
Похожие темы
Форум Тема Автор Торрент Отв. Посл. сооб.
Зарубежное кино [DVDRip, Low-Res HDRip, и т.д.] Призраки Гарри Пэйна: Зло не умрет никогда / The Haunting of Harry Payne (Мартин Пик) [2014 г., ужасы, триллер, DVDRip] DVO (DeadSno & den904) + Original (Eng) 90ytr90
33 | 1

0 | 339

18

17.04.2014 17:07



Последний раз редактировалось: GUree (30.05.2010 17:07), всего редактировалось 4 раз(а)

GUree Пол:Муж

31-Июл-2009 19:32

:lol:

Паукан Пол:Муж

01-Авг-2009 10:49

GUree
а ты что не знал что можешь сам релизы одобрять? :) Админы ж тут пока в отъезде основной частью %)

GUree Пол:Муж

01-Авг-2009 15:42

Откуда же? Я ведь релизер, а не модер! Хотя цвет меня смутил, конечно! :lol:

Паукан Пол:Муж

01-Авг-2009 18:28

GUree
ну вот теперь будешь знать, что в своем разделе еще и модер )

GUree Пол:Муж

29-Дек-2009 09:17

Поменял Рип! Причина: вернул фрейм-рейт исходника, немного поменял аспект для лучшего сжатия, чуток убрал шум, и в результате уместились обе дороги исходника по 384Kb/s! Такие дела! ;)

PoloZ7 

30-Авг-2012 21:25

фильм потрясный :good:

johnflower 

07-Окт-2012 07:22

Прекрасно :lol:

Яндекс.Метрика powered by Sphinx


В Н И М А Н И Е
Сайт не распространяет и не хранит электронные версии произведений, а лишь бесплатно и без коммерческой выгоды (не требуя взамен платы,
SMS и т.д.) предоставляет доступ к создаваемому пользователями каталогу ссылок на торрент-файлы, которые содержат только списки хеш-сумм.
Убедительная просьба с жалобами обращаться напрямую к пользователю, разместившему торрент файл.

Вверх