Loading...
Error

Дабл трабл (Эдуард Оганесян) [2015 г., комедия, WEBRip] Original (RUS)

Статистика раздачи
Размер:  1,37 GB   |    Зарегистрирован:  1 год 5 месяцев   |    Скачан:  45 раз

Полного источника не было: 23 часа

Сидов:  0  |  0 KB/s  ]   Личеров:  0  |  0 KB/s  ]

* - сиды/пиры с внешних источников

   
 
Автор Сообщение

makkol Пол:Муж

19-Июн-2015 15:29

Дабл трабл
«Беда не приходит одна»


Год выпуска: 2015
Жанр: комедия
Производство: Россия, Базелевс Продакшн
Режиссер: Эдуард Оганесян
В ролях: Даниил Белых, Екатерина Варнава, Лера Куликова, Даниил Кузнец, Слава, Сергей Мезенцев, Владимир Тишко, Юлия Морозова, Лена Горностаева, Саймон
Сюжет фильма:
Роман ведет холостяцкий образ жизни и свое шоу на радио. Как заправский психолог он раздает советы слушателям, приправляя их колкими шутками. Пока одна из них не оборачивается против него самого. На вопрос 20-летней Алены, ехать ли ей к отцу, Роман отвечает «Конечно! Я был бы рад». Он не знает, что в эфире — плод его случайной связи, а он сам в одночасье стал не только отцом, но и дедушкой Алениного сына. Новоиспеченные родственники погружают в ад беззаботного Романа и его девушку Сашу, светскую львицу и владелицу радиостанции. Не меньшее разочарование ждет и Алену. Только чудо сможет сделать их четверых одной семьей…

  • Российская премьера: 28 мая 2015

Качество видео: WEBRip

Продолжительность: 01:20:21
Формат: AVI
Видео: XviD, 720x304, 25.000 fps, 2041 kbps
Аудио: русский, оригинал, AC3 2.0, 48.0 kHz, 384 kbps

Код:

Общее
Полное имя                               : Dvoyn0y.Udar.2015.O.WEBRip.1400Mb.avi
Формат                                   : AVI
Формат/Информация                        : Audio Video Interleave
Размер файла                             : 1,37 Гбайт
Продолжительность                        : 1 ч. 20 м.
Общий поток                              : 2436 Кбит/сек
Программа кодирования                    : VirtualDubMod 1.5.10.2 (build 2540/release)
Библиотека кодирования                   : VirtualDubMod build 2540/release

Видео
Идентификатор                            : 0
Формат                                   : MPEG-4 Visual
Профиль формата                          : Advanced Simple@L5
Параметр BVOP формата                    : 2
Параметр QPel формата                    : Нет
Параметр GMC формата                     : Без точки перехода
Параметр матрицы формата                 : Default (MPEG)
Идентификатор кодека                     : XVID
Идентификатор кодека/Подсказка           : XviD
Продолжительность                        : 1 ч. 20 м.
Битрейт                                  : 2042 Кбит/сек
Ширина                                   : 720 пикселей
Высота                                   : 304 пикселя
Соотношение сторон                       : 2,35:1
Частота кадров                           : 25,000 кадров/сек
Цветовое пространство                    : YUV
Субдискретизация насыщенности            : 4:2:0
Битовая глубина                          : 8 бит
Тип развёртки                            : Прогрессивная
Метод сжатия                             : С потерями
Бит/(Пиксели*Кадры)                      : 0.373
Размер потока                            : 1,15 Гбайт (84%)
Библиотека кодирования                   : XviD 1.2.1 (UTC 2008-12-04)

Аудио
Идентификатор                            : 1
Формат                                   : AC-3
Формат/Информация                        : Audio Coding 3
Расширение режима                        : CM (complete main)
Параметр Endianness формата              : Big
Идентификатор кодека                     : 2000
Продолжительность                        : 1 ч. 20 м.
Вид битрейта                             : Постоянный
Битрейт                                  : 384 Кбит/сек
Каналы                                   : 2 канала
Расположение каналов                     : Front: L R
Частота                                  : 48,0 КГц
Битовая глубина                          : 16 бит
Метод сжатия                             : С потерями
Размер потока                            : 221 Мбайт (16%)
Выравнивание                             : Разделение по промежуткам
Продолжительность промежутка             : 40  мс. (1,00 видеокадр)
Время предзагрузки промежутка            : 500  мс.
Сэмпл

picpicpicpicpic
Для увеличения картинки щелкните мышкой по превью

Этот торрент недоступен для скачивания без регистрации, однако доступен по публичной magnet-ссылке (источники с публичных трекеров). Перед использованием ссылки прочтите, пожалуйста Пользовательское соглашение, а также как можно дольше оставайтесь на раздаче! Для того, чтобы скачать сам торрент-файл (который видит больше источников), а также для того, чтобы поблагодарить релизера, вам необходимо зарегистрироваться. Если регистрироваться лень - вы можете также попробовать скачать релиз по нашим партнерским ссылкам ниже.

[underverse.su].t55383.torrent
Трекер: Зарегистрирован   [ 19.06.2015 15:29 ]  

Статус: T временная (by Ведьмочка at 19.06.2015 19:21)
Поблагодарили: 1 человек
Тип торрента: публичный - доступные источники с открытых трекеров: 
Размер: 1,37 GB (занимает 0,31 DVDR, для записи нужно 1 болванка DVDR/RW)
 
 
Похожие темы
Форум Тема Автор Торрент Отв. Посл. сооб.
Наше кино [DVDRip, Low-Res HDRip, и т.д.] Дабл трабл (Эдуард Оганесян) [2015 г., комедия, DVDRip] makkol
351 | 5

0 | 739

65

16.07.2015 23:46

T Наше кино [HDDVDRip / BDRip / WEB-DL / HDTV 1080/720р] Дабл трабл (Эдуард Оганесян) [2015 г., комедия, WEBRip 720p] Original (RUS) makkol
23 | 0

0 | 668

47

19.06.2015 15:41


Яндекс.Метрика powered by Sphinx


В Н И М А Н И Е
Сайт не распространяет и не хранит электронные версии произведений, а лишь бесплатно и без коммерческой выгоды (не требуя взамен платы,
SMS и т.д.) предоставляет доступ к создаваемому пользователями каталогу ссылок на торрент-файлы, которые содержат только списки хеш-сумм.
Убедительная просьба с жалобами обращаться напрямую к пользователю, разместившему торрент файл.

Вверх