Loading...
Error

Самоволка-72 / AWOL-72 (Кристиан Сесма) [2015 г., триллер, DVDRip] VO + Original

Статистика раздачи
Размер:  1,45 GB   |    Зарегистрирован:  1 год 5 месяцев   |    Скачан:  20 раз

Полного источника не было: 9 дней

Сидов:  0  |  0 KB/s  ]   Личеров:  0  |  0 KB/s  ]

* - сиды/пиры с внешних источников

   
 
Автор Сообщение

makkol Пол:Муж

18-Июн-2015 23:19

Самоволка-72 / AWOL-72


Год выпуска: 2015
Жанр: триллер
Производство: США, ArtProd, Lock n' Load Pictures, Triumphant Entertainment, Triumphant Pictures
Режиссер: Кристиан Сесма
В ролях: Люк Госс, RZA, Букем Вудбайн, Брук Ньютон, Луис Мэндилор, Хезер Руп, Мирта Мишель, Лейф Гантвурт, Марко Хэнлиэн, Джуллиса Линн
Сюжет фильма:
Морской пехотинец, владеющий секретными сведениями, касающимися правительства, разыскивается русским спецназом, лос-анджелесской полицией и опасным убийцей. Фильм «Самоволка-72» – экшен-триллер о солдате морской пехоты Конраде Миллере, в руках у которого оказывается секретная правительственная информация. Ситуация складывается таким образом, что он вынужден уйти в самоволку и, преследуемый сразу с нескольких сторон, должен бороться, чтобы спасти военные тайны.

  • Мировая премьера: 17 февраля 2015


Перевод: Enigma
Озвучивание: Хихикающий доктор

Качество видео: DVDRip

Продолжительность: 01:19:13
Формат: AVI
Видео: XviD, 720x304, 25.000 fps, 1713 kbps
Аудио #1: русский, любительский одноголосый закадровый, AC3 5.1, 48,0 kHz, 448 kbps
Аудио #2: английский, оригинал, AC3 5.1, 48,0 kHz, 448 kbps

Код:

Общее
Полное имя : AWOL72.2015.xixidok.DVDRip.ExKinoRay.avi
Формат : AVI
Формат/Информация : Audio Video Interleave
Размер файла : 1,45 Гбайт
Продолжительность : 1 ч. 19 м.
Общий поток : 2624 Кбит/сек
Режиссёр : ExKinoRay
Программа кодирования : VirtualDubMod 1.5.10.2 (build 2540/release)
Библиотека кодирования : VirtualDubMod build 2540/release

Видео
Идентификатор : 0
Формат : MPEG-4 Visual
Профиль формата : Advanced Simple@L5
Параметр BVOP формата : 1
Параметр QPel формата : Нет
Параметр GMC формата : Без точки перехода
Параметр матрицы формата : Выборочная
Идентификатор кодека : XVID
Идентификатор кодека/Подсказка : XviD
Продолжительность : 1 ч. 19 м.
Битрейт : 1713 Кбит/сек
Ширина : 720 пикселей
Высота : 304 пикселя
Соотношение сторон : 2,35:1
Частота кадров : 25,000 кадров/сек
Цветовое пространство : YUV
Субдискретизация насыщенности : 4:2:0
Битовая глубина : 8 бит
Тип развёртки : Прогрессивная
Метод сжатия : С потерями
Бит/(Пиксели*Кадры) : 0.313
Размер потока : 971 Мбайт (65%)
Библиотека кодирования : XviD 73

Аудио #1
Идентификатор : 1
Формат : AC-3
Формат/Информация : Audio Coding 3
Расширение режима : CM (complete main)
Параметр Endianness формата : Big
Идентификатор кодека : 2000
Продолжительность : 1 ч. 19 м.
Вид битрейта : Постоянный
Битрейт : 448 Кбит/сек
Каналы : 6 каналов
Расположение каналов : Front: L C R, Side: L R, LFE
Частота : 48,0 КГц
Битовая глубина : 16 бит
Метод сжатия : С потерями
Размер потока : 254 Мбайт (17%)
Выравнивание : Разделение по промежуткам
Продолжительность промежутка : 40 мс. (1,00 видеокадр)
Время предзагрузки промежутка : 500 мс.
Заголовок : xixidok

Аудио #2
Идентификатор : 2
Формат : AC-3
Формат/Информация : Audio Coding 3
Расширение режима : CM (complete main)
Параметр Endianness формата : Big
Идентификатор кодека : 2000
Продолжительность : 1 ч. 19 м.
Вид битрейта : Постоянный
Битрейт : 448 Кбит/сек
Каналы : 6 каналов
Расположение каналов : Front: L C R, Side: L R, LFE
Частота : 48,0 КГц
Битовая глубина : 16 бит
Метод сжатия : С потерями
Размер потока : 254 Мбайт (17%)
Выравнивание : Разделение по промежуткам
Продолжительность промежутка : 40 мс. (1,00 видеокадр)
Время предзагрузки промежутка : 500 мс.
Сэмпл

picpicpicpicpic
Для увеличения картинки щелкните мышкой по превью

Этот торрент недоступен для скачивания без регистрации, однако доступен по публичной magnet-ссылке (источники с публичных трекеров). Перед использованием ссылки прочтите, пожалуйста Пользовательское соглашение, а также как можно дольше оставайтесь на раздаче! Для того, чтобы скачать сам торрент-файл (который видит больше источников), а также для того, чтобы поблагодарить релизера, вам необходимо зарегистрироваться. Если регистрироваться лень - вы можете также попробовать скачать релиз по нашим партнерским ссылкам ниже.

[underverse.su].t55357.torrent
Трекер: Зарегистрирован   [ 18.06.2015 23:19 ]  

Статус: проверено (by Ведьмочка at 19.06.2015 04:23)
Поблагодарили: 1 человек
Тип торрента: публичный - доступные источники с открытых трекеров: 
Размер: 1,45 GB (занимает 1/3 DVDR, для записи нужно 1 болванка DVDR/RW)
 
 

Яндекс.Метрика powered by Sphinx


В Н И М А Н И Е
Сайт не распространяет и не хранит электронные версии произведений, а лишь бесплатно и без коммерческой выгоды (не требуя взамен платы,
SMS и т.д.) предоставляет доступ к создаваемому пользователями каталогу ссылок на торрент-файлы, которые содержат только списки хеш-сумм.
Убедительная просьба с жалобами обращаться напрямую к пользователю, разместившему торрент файл.

Вверх