Loading...
Error

Ганмен / The Gunman (Пьер Морель) [2015 г., Боевик, Триллер, Драма, Криминал, WEB-DLRip] Dub (RUS, Звук с TS) + Original (ENG)

Статистика раздачи
Размер:  2,06 GB   |    Зарегистрирован:  1 год 5 месяцев   |    Скачан:  14 раз

Полного источника не было: 2 дня 5 часов

Сидов:  0  |  0 KB/s  ]   Личеров:  0  |  0 KB/s  ]

* - сиды/пиры с внешних источников

   
 
Автор Сообщение

Ведьмочка Пол:Жен

18-Июн-2015 22:08

Ганмен / The Gunman
«На прицеле. На грани. На взводе»


Страна: США , Испания , Великобритания , Франция
Год выпуска: 2015
Жанр: Боевик, Триллер, Драма, Криминал
Продолжительность: 01:55:35
Режиссёр: Пьер Морель
В ролях: Шон Пенн, Хавьер Бардем, Рэй Уинстон, Жазмин Тринка, Идрис Эльба, Марк Райлэнс, Петер Францен, Билли Биллинхэм, Дэниэл Адегбойега, Адэ Ойефесо
Сюжет фильма:
Джим Террье — ганмен, международный наемник высочайшего класса. Но когда в Компании начинают подчищать хвосты, Джим сам становится мишенью. Чтобы выжить, Джим угрожает обнародовать имеющийся у него компромат и обращается к бывшему напарнику Феликсу. Однако у Феликса есть свои резоны желать, чтобы Джим Террье исчез из его жизни. Это Энни — женщина, которую они оба любят. За Джимом начинается смертельная охота по всей Европе, и у него не остается другого выбора, кроме как дать бой — один против всех.

Озвучивание:
  • Дублированный, Русский [Звук с TS]
  • Оригинал, Английский

Качество видео: WEB-DLRip
Формат: AVI

Видео: XviD, 720x304 (2.35:1), 23.976, ~1761 Кбит/сек
Аудио #1: AC-3, 384 Кбит/сек, 2 Канала, 48.0 КГц
Аудио #2: AC-3, 384 Кбит/сек, 6 Каналов, 48.0 КГц



General
Complete name : \The.Gunman.2015.Dt.WEB-DLRip.2.05.Gb.avi
Format : AVI
Format/Info : Audio Video Interleave
Format profile : OpenDML
File size : 2.06 GiB
Duration : 1h 55mn
Overall bit rate : 2 548 Kbps
Writing application : VirtualDubMod 1.5.10.3 | www.virtualdub-fr.org || (build 2550/release)
Writing library : VirtualDubMod build 2550/release

Video
ID : 0
Format : MPEG-4 Visual
Format profile : Advanced Simple@L5
Format settings, BVOP : 1
Format settings, QPel : No
Format settings, GMC : No warppoints
Format settings, Matrix : Custom
Codec ID : XVID
Codec ID/Hint : XviD
Duration : 1h 55mn
Bit rate : 1 761 Kbps
Width : 720 pixels
Height : 304 pixels
Display aspect ratio : 2.35:1
Frame rate : 23.976 fps
Color space : YUV
Chroma subsampling : 4:2:0
Bit depth : 8 bits
Scan type : Progressive
Compression mode : Lossy
Bits/(Pixel*Frame) : 0.336
Stream size : 1.42 GiB (69%)
Writing library : XviD 73

Audio #1
ID : 1
Format : AC-3
Format/Info : Audio Coding 3
Mode extension : CM (complete main)
Format settings, Endianness : Big
Codec ID : 2000
Duration : 1h 55mn
Bit rate mode : Constant
Bit rate : 384 Kbps
Channel(s) : 2 channels
Channel positions : Front: L R
Sampling rate : 48.0 KHz
Bit depth : 16 bits
Compression mode : Lossy
Stream size : 317 MiB (15%)
Alignment : Split accross interleaves
Interleave, duration : 42 ms (1.00 video frame)
Interleave, preload duratio : 500 ms

Audio #2
ID : 2
Format : AC-3
Format/Info : Audio Coding 3
Mode extension : CM (complete main)
Format settings, Endianness : Big
Codec ID : 2000
Duration : 1h 55mn
Bit rate mode : Constant
Bit rate : 384 Kbps
Channel(s) : 6 channels
Channel positions : Front: L C R, Side: L R, LFE
Sampling rate : 48.0 KHz
Bit depth : 16 bits
Compression mode : Lossy
Stream size : 317 MiB (15%)
Alignment : Split accross interleaves
Interleave, duration : 42 ms (1.00 video frame)
Interleave, preload duratio : 500 ms


picpicpicpicpic
Для увеличения картинки щелкните мышкой по превью



Этот торрент недоступен для скачивания без регистрации, однако доступен по публичной magnet-ссылке (источники с публичных трекеров). Перед использованием ссылки прочтите, пожалуйста Пользовательское соглашение, а также как можно дольше оставайтесь на раздаче! Для того, чтобы скачать сам торрент-файл (который видит больше источников), а также для того, чтобы поблагодарить релизера, вам необходимо зарегистрироваться. Если регистрироваться лень - вы можете также попробовать скачать релиз по нашим партнерским ссылкам ниже.

[underverse.su].t55355.torrent
Трекер: Зарегистрирован   [ 18.06.2015 22:08 ]  

Статус: T временная (by Ведьмочка at 18.06.2015 22:08)
Поблагодарили: 1 человек
Тип торрента: публичный - доступные источники с открытых трекеров: 
Размер: 2,06 GB (занимает 0,47 DVDR, для записи нужно 1 болванка DVDR/RW)
 
 
Похожие темы
Форум Тема Автор Торрент Отв. Посл. сооб.
Зарубежное кино [DVDRip, Low-Res HDRip, и т.д.] Ганмен / The Gunman (Пьер Морель / Pierre Morel) [2015 г., боевик, триллер, драма, криминал, детектив, BDRip] AVO (Яроцкий) 90ytr90
10 | 0

0 | 289

4

16.02.2016 08:22

Зарубежное кино [DVDRip, Low-Res HDRip, и т.д.] Ганмен / The Gunman (Пьер Морель / Pierre Morel) [2015 г., боевик, триллер, драма, криминал, детектив, HDRip] AVO (Есарев) 90ytr90
9 | 0

0 | 292

2

16.02.2016 08:31

Зарубежное кино [DVDRip, Low-Res HDRip, и т.д.] Ганмен / The Gunman (Пьер Морель / Pierre Morel) [2015 г., боевик, триллер, драма, криминал, детектив, HDRip] AVO (Есарев) 90ytr90
19 | 1

0 | 292

1

16.02.2016 08:35

T Зарубежное кино [DVDRip, Low-Res HDRip, и т.д.] Ганмен / The Gunman (Пьер Морель / Pierre Morel) [2015 г., боевик, триллер, драма, криминал, детектив, HDRip] Dub (iTunes) 90ytr90
59 | 1

0 | 399

13

16.02.2016 08:38

T Зарубежное кино [DVDRip, Low-Res HDRip, и т.д.] Ганмен / The Gunman (Пьер Морель / Pierre Morel) [2015 г., боевик, триллер, драма, криминал, детектив, HDRip] Dub (iTunes) 90ytr90
27 | 0

0 | 299

6

16.02.2016 08:40

T Зарубежное кино [DVDRip, Low-Res HDRip, и т.д.] Ганмен / The Gunman (Пьер Морель / Pierre Morel) [2015 г., боевик, триллер, драма, криминал, детектив, BDRip-AVC] Dub (iTunes) 90ytr90
69 | 0

0 | 363

9

16.02.2016 08:49

T Зарубежное кино [DVDRip, Low-Res HDRip, и т.д.] Ганмен / The Gunman (Пьер Морель / Pierre Morel) [2015 г., боевик, триллер, драма, криминал, детектив, BDRip-AVC] Dub (iTunes) + Original (Eng) + Sub (Eng) 90ytr90
85 | 1

0 | 325

8

16.02.2016 08:54

Зарубежное кино [DVDRip, Low-Res HDRip, и т.д.] Ганмен / The Gunman (Пьер Морель / Pierre Morel) [2015 г., боевик, триллер, драма, криминал, детектив, HDRip-AVC] 2xAVO (Есарев) + Original (Eng) + Sub (Eng) 90ytr90
15 | 0

0 | 340

6

16.02.2016 09:06

Зарубежное кино [HDDVDRip / BDRip / WEB-DL / HDTV 1080/720р] Ганмен / The Gunman (Пьер Морель) [2015 г., Боевик, триллер, драма, криминал, детектив, BDRip 720p] AVO [Esarev] + AVO [Esarev] + Original romeoexpert
8 | 0

0 | 893

9

19.06.2015 20:55

T Зарубежное кино [HDDVDRip / BDRip / WEB-DL / HDTV 1080/720р] Ганмен / The Gunman (Пьер Морель / Pierre Morel) [2015 г., боевик, триллер, драма, криминал, детектив, BDRip 720p] Dub (iTunes) + 2xAVO (Есарев) + AVO (Яроцкий) + Dub (Ukr) + Original (Eng) + Sub... 90ytr90
6 | 1

0 | 336

3

16.02.2016 09:25


Яндекс.Метрика powered by Sphinx


В Н И М А Н И Е
Сайт не распространяет и не хранит электронные версии произведений, а лишь бесплатно и без коммерческой выгоды (не требуя взамен платы,
SMS и т.д.) предоставляет доступ к создаваемому пользователями каталогу ссылок на торрент-файлы, которые содержат только списки хеш-сумм.
Убедительная просьба с жалобами обращаться напрямую к пользователю, разместившему торрент файл.

Вверх