Loading...
Error

Золушка / Cinderella (Кеннет Брана) [2015 г., Фэнтези, Драма, Мелодрама, Семейный, HDRip] Dub (RUS, Чистый звук)

Статистика раздачи
Размер:  1,46 GB   |    Зарегистрирован:  1 год 5 месяцев   |    Скачан:  71 раз
Сидов:  1  |  0 KB/s  ]   Личеров:  0  |  0 KB/s  ]

* - сиды/пиры с внешних источников

   
 
Автор Сообщение

Ведьмочка Пол:Жен

18-Июн-2015 20:16

Золушка / Cinderella
«Midnight is just the beginning»


Страна: США , Великобритания
Год выпуска: 2015
Жанр: Фэнтези, Драма, Мелодрама, Семейный
Продолжительность: 01:45:21
Режиссёр: Кеннет Брана
В ролях: Лили Джеймс, Кейт Бланшетт, Ричард Мэдден, Хелена Бонем Картер ,Нонсо Анози, Стеллан Скарсгард, Софи МакШера, Холлидей Грейнджер, Дерек Джекоби, Бен Чаплин
Сюжет фильма:
Отец молодой девушки по имени Элла, овдовев, женится во второй раз, и вскоре Элла оказывается один на один с жадными и завистливыми новыми родственницами — мачехой Леди Тремэйн и ее дочерьми — Анастасией и Дризеллой. Из хозяйки дома она превращается в служанку, вечно испачканную золой, за что и получает от своих сварливых сводных сестриц прозвище — Золушка. Несмотря на злоключения, выпавшие на ее долю, Золушка не отчаивается, ведь даже в самые тяжелые моменты находится что-то, что помогает ей думать о хорошем: например, случайная встреча на лесной тропинке с прекрасным юношей. Элла даже не предполагает, что встретилась с самим принцем, и что вскоре Фея-крестная навсегда поменяет её жизнь к лучшему.

Озвучивание:
  • Дублированный, Русский [Чистый звук]

Качество видео: HDRip
Формат: AVI

Видео: XviD, 720x304 (2.35:1), 23.976, ~1842 Кбит/сек
Аудио: AC-3, 128 Кбит/сек, 2 Канала, 48.0 КГц



General
Complete name : \Золушка.HDRip.avi
Format : AVI
Format/Info : Audio Video Interleave
File size : 1.46 GiB
Duration : 1h 45mn
Overall bit rate : 1 979 Kbps
Writing application : VirtualDubMod 1.5.10.3 | www.virtualdub-fr.org || (build 2550/release)
Writing library : VirtualDubMod build 2550/release

Video
ID : 0
Format : MPEG-4 Visual
Format profile : Advanced Simple@L5
Format settings, BVOP : 2
Format settings, QPel : No
Format settings, GMC : No warppoints
Format settings, Matrix : Default (MPEG)
Muxing mode : Packed bitstream
Codec ID : XVID
Codec ID/Hint : XviD
Duration : 1h 45mn
Bit rate : 1 842 Kbps
Width : 720 pixels
Height : 304 pixels
Display aspect ratio : 2.35:1
Frame rate : 23.976 fps
Color space : YUV
Chroma subsampling : 4:2:0
Bit depth : 8 bits
Scan type : Progressive
Compression mode : Lossy
Bits/(Pixel*Frame) : 0.351
Stream size : 1.36 GiB (93%)
Writing library : XviD 1.2.1 (UTC 2008-12-04)

Audio
ID : 1
Format : AC-3
Format/Info : Audio Coding 3
Mode extension : CM (complete main)
Format settings, Endianness : Big
Codec ID : 2000
Duration : 1h 45mn
Bit rate mode : Constant
Bit rate : 128 Kbps
Channel(s) : 2 channels
Channel positions : Front: L R
Sampling rate : 48.0 KHz
Bit depth : 16 bits
Compression mode : Lossy
Stream size : 96.5 MiB (6%)
Alignment : Split accross interleaves
Interleave, duration : 42 ms (1.00 video frame)
Interleave, preload duratio : 500 ms


picpicpicpicpic
Для увеличения картинки щелкните мышкой по превью



Этот торрент недоступен для скачивания без регистрации, однако доступен по публичной magnet-ссылке (источники с публичных трекеров). Перед использованием ссылки прочтите, пожалуйста Пользовательское соглашение, а также как можно дольше оставайтесь на раздаче! Для того, чтобы скачать сам торрент-файл (который видит больше источников), а также для того, чтобы поблагодарить релизера, вам необходимо зарегистрироваться. Если регистрироваться лень - вы можете также попробовать скачать релиз по нашим партнерским ссылкам ниже.

[underverse.su].t55347.torrent
Трекер: Зарегистрирован   [ 18.06.2015 20:16 ]  

Статус: T временная (by Ведьмочка at 18.06.2015 20:19)
Поблагодарили: 3 человека
Тип торрента: публичный - доступные источники с открытых трекеров: 
Размер: 1,46 GB (занимает 1/3 DVDR, для записи нужно 1 болванка DVDR/RW)
 
 
Похожие темы
Форум Тема Автор Торрент Отв. Посл. сооб.
T Зарубежное кино [DVDRip, Low-Res HDRip, и т.д.] Золушка / Cinderella (Кеннет Брана) [2015 г., фэнтези, драма, мелодрама, приключения, семейный, WEB-DLRip] Dub [Чистый звук] Паукан
51 | 0

0 | 605

23

13.06.2015 08:19

T Зарубежное кино [HDDVDRip / BDRip / WEB-DL / HDTV 1080/720р] Золушка / Cinderella (Кеннет Брана) [2015 г., фэнтези, драма, мелодрама, приключения, семейный, WEB-DLRip 720p] Dub [Чистый звук] Паукан
18 | 0

0 | 527

15

13.06.2015 08:16

T Зарубежное кино [HDDVDRip / BDRip / WEB-DL / HDTV 1080/720р] Золушка / Cinderella (Кеннет Брана) [2015 г., Фэнтези, Драма, Мелодрама, Семейный, BDRip 720p] Dub (RUS, Чистый звук) + Original (ENG) + Subs (ENG) Ведьмочка
27 | 1

0 | 514

28

18.06.2015 20:33

T Зарубежное кино [HDDVDRip / BDRip / WEB-DL / HDTV 1080/720р] Золушка / Cinderella (Кеннет Брана) [2015 г., Фэнтези, Драма, Мелодрама, Семейный, BDRip 1080p] Dub (RUS, Чистый звук) + Original (ENG) + Subs (ENG) Ведьмочка
9 | 0

0 | 531

31

18.06.2015 20:49

T Новинки кино [CAMRip, TS, DVDScr, WP, TC] Золушка / Cinderella (Кеннет Брана / Kenneth Branagh) [2015 г., фэнтези, драма, мелодрама, приключения, семейный, TS] Dub 90ytr90
2 | 0

0 | 1061

33

23.03.2015 11:44

T Новинки кино [CAMRip, TS, DVDScr, WP, TC] Золушка / Cinderella (Кеннет Брана / Kenneth Branagh) [2015 г., фэнтези, драма, мелодрама, приключения, семейный, TS] Dub 90ytr90
0 | 0

1 | 958

22

23.03.2015 17:41

T Новинки кино [CAMRip, TS, DVDScr, WP, TC] Золушка / Cinderella (Кеннет Брана / Kenneth Branagh) [2015 г., фэнтези, драма, мелодрама, приключения, семейный, TS] Dub (чистый звук) 90ytr90
10 | 2

1 | 1607

113

30.03.2015 06:50

Архив Золушка / Cinderella (Клайд Джероними / Clyde Geronimi, Уилфред Джексон / Wilfred Jackson) [1950 г., мьюзикл, фэнтези, DVDRip] БогDan
0 | 0

5 | 3486

9

30.08.2010 00:06


Яндекс.Метрика powered by Sphinx


В Н И М А Н И Е
Сайт не распространяет и не хранит электронные версии произведений, а лишь бесплатно и без коммерческой выгоды (не требуя взамен платы,
SMS и т.д.) предоставляет доступ к создаваемому пользователями каталогу ссылок на торрент-файлы, которые содержат только списки хеш-сумм.
Убедительная просьба с жалобами обращаться напрямую к пользователю, разместившему торрент файл.

Вверх