Loading...
Error

А зори здесь тихие... (Ренат Давлетьяров) [2015 г., Драма, Военный, История, WEB-DLRip] Original (RUS)

Статистика раздачи
Размер:  1,46 GB   |    Зарегистрирован:  1 год 5 месяцев   |    Скачан:  91 раз

Полного источника не было: 9 дней

Сидов:  0  |  0 KB/s  ]   Личеров:  0  |  0 KB/s  ]

* - сиды/пиры с внешних источников

   
 
Автор Сообщение

Ведьмочка Пол:Жен

18-Июн-2015 17:52

А зори здесь тихие...


Страна: Россия
Год выпуска: 2015
Жанр: Драма, Военный, История
Продолжительность: 01:51:25
Режиссёр: Ренат Давлетьяров
В ролях: Пётр Фёдоров, Евгения Малахова, Агния Кузнецова, Анастасия Микульчина, Софья Лебедева (II), Кристина Асмус, Екатерина Вилкова, Анатолий Белый, Дарья Мороз, Виктор Проскурин
Сюжет фильма:
Май 1942 года. В самый разгар Великой Отечественной войны вдалеке от линии фронта, у забытого богом разъезда, фашисты выбрасывают десант с целью пробраться на Кировскую железную дорогу и Беломорско-Балтийский канал. Это не обычные солдаты-пехотинцы, это опытные, тренированные диверсанты, элита войск СС, «сверхлюди». А против них — старшина Васков и пять девчонок-зенитчиц. Казалось бы, бой местного значения, но на кону — стратегически важная транспортная артерия, соединяющая значимые центры страны. Смогут ли старшина и его хрупкие новобранцы предотвратить нацистскую диверсию, и какой ценой?

Озвучивание:
  • Оригинал, Русский

Качество видео: WEB-DLRip
Формат: AVI

Видео: XviD, 720x304 (2.35:1), 25.000 fps, ~1681 Кбит/сек
Аудио: AC-3, 192 Кбит/сек, 2 Канала, 48.0 КГц



General
Complete name : \A.zori.zdes.tihie.2015.O.WEB-DLRip.avi
Format : AVI
Format/Info : Audio Video Interleave
File size : 1.46 GiB
Duration : 1h 51mn
Overall bit rate : 1 882 Kbps
Writing application : VirtualDubMod 1.5.10.2 (build 2540/release)
Writing library : VirtualDubMod build 2540/release

Video
ID : 0
Format : MPEG-4 Visual
Format profile : Advanced Simple@L5
Format settings, BVOP : 2
Format settings, QPel : No
Format settings, GMC : No warppoints
Format settings, Matrix : Custom
Codec ID : XVID
Codec ID/Hint : XviD
Duration : 1h 51mn
Bit rate : 1 681 Kbps
Width : 720 pixels
Height : 304 pixels
Display aspect ratio : 2.35:1
Frame rate : 25.000 fps
Color space : YUV
Chroma subsampling : 4:2:0
Bit depth : 8 bits
Scan type : Progressive
Compression mode : Lossy
Bits/(Pixel*Frame) : 0.307
Stream size : 1.30 GiB (89%)
Writing library : XviD 1.2.1 (UTC 2008-12-04)

Audio
ID : 1
Format : AC-3
Format/Info : Audio Coding 3
Mode extension : CM (complete main)
Format settings, Endianness : Big
Codec ID : 2000
Duration : 1h 51mn
Bit rate mode : Constant
Bit rate : 192 Kbps
Channel(s) : 2 channels
Channel positions : Front: L R
Sampling rate : 48.0 KHz
Bit depth : 16 bits
Compression mode : Lossy
Stream size : 153 MiB (10%)
Alignment : Split accross interleaves
Interleave, duration : 40 ms (1.00 video frame)
Interleave, preload duratio : 500 ms


picpicpicpicpic
Для увеличения картинки щелкните мышкой по превью



Этот торрент недоступен для скачивания без регистрации, однако доступен по публичной magnet-ссылке (источники с публичных трекеров). Перед использованием ссылки прочтите, пожалуйста Пользовательское соглашение, а также как можно дольше оставайтесь на раздаче! Для того, чтобы скачать сам торрент-файл (который видит больше источников), а также для того, чтобы поблагодарить релизера, вам необходимо зарегистрироваться. Если регистрироваться лень - вы можете также попробовать скачать релиз по нашим партнерским ссылкам ниже.

[underverse.su].t55345.torrent
Трекер: Зарегистрирован   [ 18.06.2015 17:52 ]  

Статус: проверено (by Ведьмочка at 18.06.2015 17:59)
Поблагодарили: 2 человека
Тип торрента: публичный - доступные источники с открытых трекеров: 
Размер: 1,46 GB (занимает 0,33 DVDR, для записи нужно 1 болванка DVDR/RW)
 
 
Похожие темы
Форум Тема Автор Торрент Отв. Посл. сооб.
Кино СССР А зори здесь тихие (Станислав Ростоцкий) (2 серии из двух) [1972 г., Драма, военный, история, VHSRip] unforg_kin
0 | 0

5 | 2636

10

20.08.2011 07:46

Кино СССР А зори здесь тихие [2 серии] (Станислав Ростоцкий) [1972 г., драма, военный, история, DVDRip] [полная версия] 90ytr90
3 | 0

0 | 1947

18

04.01.2014 21:23

Кино СССР А зори здесь тихие [2 серии] (Станислав Ростоцкий) [1972 г., драма, военный, история, DVDRip] [полная версия] 90ytr90
13 | 0

0 | 603

26

06.05.2015 19:01

xUSSR сериалы А зори здесь тихие... / Серии / 1-12 (12) (Мао Вэйнин) [2005 г., боевик, драма, военный, DVDRip] Чертёнок
2 | 0

0 | 775

17

21.06.2013 17:55


Яндекс.Метрика powered by Sphinx


В Н И М А Н И Е
Сайт не распространяет и не хранит электронные версии произведений, а лишь бесплатно и без коммерческой выгоды (не требуя взамен платы,
SMS и т.д.) предоставляет доступ к создаваемому пользователями каталогу ссылок на торрент-файлы, которые содержат только списки хеш-сумм.
Убедительная просьба с жалобами обращаться напрямую к пользователю, разместившему торрент файл.

Вверх