Loading...
Error

В поисках Рождества / Finding Christmas (Харви Кросслэнд) [2013 г., мелодрама, SatRip] MVO

Статистика раздачи
Размер:  1,37 GB   |    Зарегистрирован:  1 год 5 месяцев   |    Скачан:  1 раз

Полного источника не было: 1 год 4 месяца

Сидов:  0  |  0 KB/s  ]   Личеров:  0  |  0 KB/s  ]

* - сиды/пиры с внешних источников

   
 
Автор Сообщение

makkol Пол:Муж

17-Июн-2015 22:09

В поисках Рождества / Finding Christmas


Год выпуска: 2013
Жанр: мелодрама
Производство: США, Chesler/Perlmutter Productions
Режиссер: Харви Кросслэнд
В ролях: Триша Хелфер, Марк Лутс, Кристина Розато, Кристиан Дистефано, Британи Грэй, Джессика Риммер, Дов Микельсон, Даниэль Кайнд, Скотт Виквэа
Сюжет фильма:
Живущие на расстоянии тысячи километров музыкант Оуэн и рекламный агент Шон оказываются в схожей ситуации - обоих бросают возлюбленные. Чтобы отвлечься от своих проблем, мужчины решают обменяться домами в канун Рождества.

  • Мировая премьера: 15 декабря 2013


Качество видео: SatRip

Продолжительность: 01:26:47
Формат: AVI
Видео: XviD, 720x400 (16:9), 25.000 fps, 2056 kbps
Аудио: русский, профессиональный многоголосый закадровый (Кинопоказ), AC3 2.0, 48.0 KHz, 192 kbps

Код:

Общее
Полное имя : В поисках Рождества.avi
Формат : AVI
Формат/Информация : Audio Video Interleave
Размер файла : 1,37 Гбайт
Продолжительность : 1 ч. 26 м.
Общий поток : 2258 Кбит/сек
Название фильма : В поисках Рождества / Finding Christmas (2013)
Программа кодирования : VirtualDubMod 1.5.10.2 (build 2540/release)
Библиотека кодирования : VirtualDubMod build 2540/release
Правообладатель : miha2154

Видео
Идентификатор : 0
Формат : MPEG-4 Visual
Профиль формата : Advanced Simple@L5
Параметр BVOP формата : 1
Параметр QPel формата : Нет
Параметр GMC формата : Без точки перехода
Параметр матрицы формата : Выборочная
Идентификатор кодека : XVID
Идентификатор кодека/Подсказка : XviD
Продолжительность : 1 ч. 26 м.
Битрейт : 2056 Кбит/сек
Ширина : 720 пикселей
Высота : 400 пикселей
Соотношение сторон : 16:9
Частота кадров : 25,000 кадров/сек
Цветовое пространство : YUV
Субдискретизация насыщенности : 4:2:0
Битовая глубина : 8 бит
Тип развёртки : Прогрессивная
Метод сжатия : С потерями
Бит/(Пиксели*Кадры) : 0.286
Размер потока : 1,25 Гбайт (91%)
Библиотека кодирования : XviD 65

Аудио
Идентификатор : 1
Формат : AC-3
Формат/Информация : Audio Coding 3
Расширение режима : CM (complete main)
Параметр Endianness формата : Big
Идентификатор кодека : 2000
Продолжительность : 1 ч. 26 м.
Вид битрейта : Постоянный
Битрейт : 192 Кбит/сек
Каналы : 2 канала
Расположение каналов : Front: L R
Частота : 48,0 КГц
Битовая глубина : 16 бит
Метод сжатия : С потерями
Размер потока : 119 Мбайт (9%)
Выравнивание : Разделение по промежуткам
Продолжительность промежутка : 40 мс. (1,00 видеокадр)
Время предзагрузки промежутка : 500 мс.
Заголовок : Профессиональный (многоголосый закадровый)
Сэмпл

picpicpicpicpic
Для увеличения картинки щелкните мышкой по превью

Этот торрент недоступен для скачивания без регистрации, однако доступен по публичной magnet-ссылке (источники с публичных трекеров). Перед использованием ссылки прочтите, пожалуйста Пользовательское соглашение, а также как можно дольше оставайтесь на раздаче! Для того, чтобы скачать сам торрент-файл (который видит больше источников), а также для того, чтобы поблагодарить релизера, вам необходимо зарегистрироваться. Если регистрироваться лень - вы можете также попробовать скачать релиз по нашим партнерским ссылкам ниже.

[underverse.su].t55334.torrent
Трекер: Зарегистрирован   [ 17.06.2015 22:09 ]  

Статус: проверено (by Паукан at 18.06.2015 08:21)
Поблагодарили: 1 человек
Тип торрента: публичный - доступные источники с открытых трекеров: 
Размер: 1,37 GB (занимает 0,31 DVDR, для записи нужно 1 болванка DVDR/RW)
 
 
Похожие темы
Форум Тема Автор Торрент Отв. Посл. сооб.
Зарубежное кино [DVDRip, Low-Res HDRip, и т.д.] В поисках блаженства / Finding Bliss (Джули Дэвис) [2009 г., мелодрама, комедия, DVDRip] VO [den904] Паукан
0 | 1

0 | 1890

8

21.11.2013 14:09

Зарубежное кино [DVDRip, Low-Res HDRip, и т.д.] В поисках радости / Finding Joy (Карло Де Роза) [2013 г., комедия, драма, WEB-DLRip] MVO (НТВ+) 90ytr90
0 | 0

0 | 1863

8

24.11.2013 12:00

Зарубежное кино [DVDRip, Low-Res HDRip, и т.д.] В поисках Фанни / Finding Fanny (Хоми Ададжаниа / Homi Adajania) [2014 г., драма, мелодрама, комедия, DVDRip] MVO (ICG) + Original (Hin) + Sub (Rus) 90ytr90
1 | 1

0 | 461

1

25.01.2015 13:27

Зарубежное кино [DVDRip, Low-Res HDRip, и т.д.] В поисках галактики / Galaxy Quest (Дин Паризо / Dean Parisot) [1999 г., фантастика, комедия, приключения, BDRip] MVO + Original (Eng) + AVO (Ю.Живов) + MVO (ОРТ) 90ytr90
0 | 0

0 | 246

4

31.01.2015 21:22

Зарубежное кино [DVDRip, Low-Res HDRip, и т.д.] В поисках галактики / Galaxy Quest (Дин Паризо / Dean Parisot) [1999 г., фантастика, комедия, приключения, BDRip] MVO + Original (Eng) + Sub (Rus, Eng) 90ytr90
3 | 0

0 | 287

9

31.01.2015 21:23

Зарубежное кино [DVDRip, Low-Res HDRip, и т.д.] В поисках Бобби Фишера / Выбор игры / Searching for Bobby Fischer (Стивен Зеллиан) [1993 г., драма, биография, WEB-DLRip] DVO + MVO + VO + Original + Subs makkol
14 | 3

0 | 482

4

08.03.2016 15:25

Зарубежное кино [DVDRip, Low-Res HDRip, и т.д.] В поисках чудес / Looking for Miracles (Кевин Салливан ) [1989 г., драма, семейный, DVDRip] VO + Original makkol
2 | 0

0 | 619

3

12.03.2016 11:49

T Зарубежное кино [DVDRip, Low-Res HDRip, и т.д.] В поисках огня / Digging for Fire (Джо Сванберг) [2015 г., драма, WEB-DLRip] MVO makkol
1 | 0

0 | 723

22

13.03.2016 23:32

Зарубежные мультфильмы В поисках Жу / Quest for Zhu (Боб Дусетте ) [2011 г., мультфильм,приключения,семейный, HDRip] МУХА~
0 | 0

1 | 1338

20

30.10.2011 12:32

Зарубежные мультфильмы В поисках Дори / Finding Dory (Эндрю Стэнтон / Andrew Stanton, Энгус МакЛэйн / Angus MacLane) [2016 г., мультфильм, комедия, приключения, семейный, BDRip-AVC] Dub + Original (Eng) + Sub (Rus, Eng) 90ytr90
55 | 6

0 | 166

3

19.11.2016 07:23


Яндекс.Метрика powered by Sphinx


В Н И М А Н И Е
Сайт не распространяет и не хранит электронные версии произведений, а лишь бесплатно и без коммерческой выгоды (не требуя взамен платы,
SMS и т.д.) предоставляет доступ к создаваемому пользователями каталогу ссылок на торрент-файлы, которые содержат только списки хеш-сумм.
Убедительная просьба с жалобами обращаться напрямую к пользователю, разместившему торрент файл.

Вверх