Loading...
Error

Ловушка / The Badger Game (Джошуа Вагнер, Томас Зэмбек) [2014 г., триллер, драма, криминальный, WEB-DLRip] VO

Статистика раздачи
Размер:  1,47 GB   |    Зарегистрирован:  1 год 5 месяцев   |    Скачан:  13 раз

Полного источника не было: 5 месяцев 20 дней

Сидов:  0  |  0 KB/s  ]   Личеров:  0  |  0 KB/s  ]

* - сиды/пиры с внешних источников

   
 
Автор Сообщение

makkol Пол:Муж

16-Июн-2015 23:12

Ловушка / The Badger Game


Год выпуска: 2014
Жанр: триллер, драма, криминальный
Страна: США
Режиссер: Джошуа Вагнер, Томас Зэмбек
В ролях: Оджи Дьюк, Патрик Кронен, Джиллиан Федерман, Сэм Бокслейтнер, Саша Хиггинс, Марк Сицилиани, Джош Эйхенбаум, Кортни Блэк
Сюжет фильма:
Богатого ловеласа просто тянет к интрижкам на стороне. Но любовь к женщинам становится для него пагубной. Однажды герой-любовник становится жертвой похищения четверых людей в масках. От него добиваются перевода всех его финансов на их счет. Но планы похитителей срываются. Все выходит из под контроля и теперь нужно действовать по ситуации...

  • Мировая премьера: 26 сентября 2014


Перевод: Janetta
Озвучивание: Павел Морозов aka PashaUP

Качество видео: WEB-DLRip

Продолжительность: 01:39:05
Формат: AVI
Видео: XviD, 720x360, 1920 kbps
Аудио: русский, любительский одноголосый закадровый, AC3 2.0, 192 kbps

Код:

Общее
Полное имя                               : D:\FILMЬl\NEWCOME\Lovushka.2014.avi
Формат                                   : AVI
Формат/Информация                        : Audio Video Interleave
Размер файла                             : 1,47 Гбайт
Продолжительность                        : 1 ч. 39 м.
Общий поток                              : 2122 Кбит/сек
Программа кодирования                    : VirtualDubMod 1.5.10.3 | www.virtualdub-fr.org || (build 2550/release)
Библиотека кодирования                   : VirtualDubMod build 2550/release

Видео
Идентификатор                            : 0
Формат                                   : MPEG-4 Visual
Профиль формата                          : Advanced Simple@L5
Параметр BVOP формата                    : 1
Параметр QPel формата                    : Нет
Параметр GMC формата                     : Без точки перехода
Параметр матрицы формата                 : Выборочная
Идентификатор кодека                     : XVID
Идентификатор кодека/Подсказка           : XviD
Продолжительность                        : 1 ч. 39 м.
Битрейт                                  : 1920 Кбит/сек
Ширина                                   : 720 пикселей
Высота                                   : 360 пикселей
Соотношение сторон                       : 2,000
Частота кадров                           : 23,976 кадра/сек
Цветовое пространство                    : YUV
Субдискретизация насыщенности            : 4:2:0
Битовая глубина                          : 8 бит
Тип развёртки                            : Прогрессивная
Метод сжатия                             : С потерями
Бит/(Пиксели*Кадры)                      : 0.309
Размер потока                            : 1,33 Гбайт (91%)
Библиотека кодирования                   : XviD 73

Аудио
Идентификатор                            : 1
Формат                                   : AC-3
Формат/Информация                        : Audio Coding 3
Расширение режима                        : CM (complete main)
Параметр Endianness формата              : Big
Идентификатор кодека                     : 2000
Продолжительность                        : 1 ч. 39 м.
Вид битрейта                             : Постоянный
Битрейт                                  : 192 Кбит/сек
Каналы                                   : 2 канала
Расположение каналов                     : Front: L R
Частота                                  : 44,1 КГц
Битовая глубина                          : 16 бит
Метод сжатия                             : С потерями
Размер потока                            : 136 Мбайт (9%)
Выравнивание                             : Разделение по промежуткам
Продолжительность промежутка             : 42  мс. (1,00 видеокадр)
Время предзагрузки промежутка            : 500  мс.
Сэмпл

picpicpicpicpic
Для увеличения картинки щелкните мышкой по превью

Этот торрент недоступен для скачивания без регистрации, однако доступен по публичной magnet-ссылке (источники с публичных трекеров). Перед использованием ссылки прочтите, пожалуйста Пользовательское соглашение, а также как можно дольше оставайтесь на раздаче! Для того, чтобы скачать сам торрент-файл (который видит больше источников), а также для того, чтобы поблагодарить релизера, вам необходимо зарегистрироваться. Если регистрироваться лень - вы можете также попробовать скачать релиз по нашим партнерским ссылкам ниже.

[underverse.su].t55323.torrent
Трекер: Зарегистрирован   [ 16.06.2015 23:12 ]  

Статус: проверено (by Паукан at 18.06.2015 08:20)
Поблагодарили: 2 человека
Тип торрента: публичный - доступные источники с открытых трекеров: 
Размер: 1,47 GB (занимает 0,34 DVDR, для записи нужно 1 болванка DVDR/RW)
 
 
Похожие темы
Форум Тема Автор Торрент Отв. Посл. сооб.
Зарубежное кино [DVDRip, Low-Res HDRip, и т.д.] Ловушка / The Resident (Антти Джокинен) [2010 г., триллер, драма, BDRip] RG NewCinema
0 | 0

0 | 510

4

16.09.2011 12:44

xUSSR сериалы Ловушка / Серии:1-24 из 24 (Сергей Коротаев) [2013 г., криминал, SATRip] konopic
0 | 0

13 | 3489

47

10.11.2013 20:40

Зарубежное кино [HDDVDRip / BDRip / WEB-DL / HDTV 1080/720р] Ловушка / The Badger Game (Джошуа Вагнер, Томас Зэмбек) [2014 г., триллер, драма, криминальный, WEB-DL 720p] VO + Original makkol
1 | 0

0 | 313

8

16.06.2015 23:24


Яндекс.Метрика powered by Sphinx


В Н И М А Н И Е
Сайт не распространяет и не хранит электронные версии произведений, а лишь бесплатно и без коммерческой выгоды (не требуя взамен платы,
SMS и т.д.) предоставляет доступ к создаваемому пользователями каталогу ссылок на торрент-файлы, которые содержат только списки хеш-сумм.
Убедительная просьба с жалобами обращаться напрямую к пользователю, разместившему торрент файл.

Вверх