Loading...
Error

Меч (1 сезон: 1-25 серия из 25) (Рустам Уразаев, Виктор Конисевич) [2009 г., боевик, DVDRip]

Статистика раздачи
Размер:  12,97 GB   |    Зарегистрирован:  1 год 5 месяцев   |    Скачан:  8 раз
Сидов:  1  |  0 KB/s  ]   Личеров:  0  |  0 KB/s  ]

* - сиды/пиры с внешних источников

   
 
Автор Сообщение

nemos Пол:Муж

15-Июн-2015 20:22

Меч


Год выпуска: 2009
Жанр: боевик
Страна: Россия
Режиссер: Рустам Уразаев, Виктор Конисевич
В ролях: Эдуард Флеров, Роман Курцын, Тимур Ефременков, Дарья Повереннова, Виктория Фишер
Сюжет фильма:
Наши дни. Москва. Растущий мегаполис выходит из-под контроля милиции. Уровень преступности растет в геометрической прогрессии. Макс Калинин бывший офицер разведки ВДВ, оперативник УБОП. По фиктивному обвинению его увольняют со службы. На деле Макс просто не согласился отпустить преступника, за которого кто-то из его руководства получил большую взятку. Калинин принимает непростое решение, он будет бороться с беззаконием своими методами. Макс собирает маленькую команду единомышленников.Команда разрастается и постепенно превращается в опасную и жестокую карательную организацию, которой боятся все. Они выбирают своим знаком меч, так же их называют и журналисты. На улицах города разворачивается настоящая война. «Меч» находится между двух зол — криминального мира, который объявляет огромные деньги за их «головы» и своих бывших коллег, которые начинают охоту на «оборотней».


Качество видео: DVDRip

Продолжительность: 00:48:00 серия
Формат: AVI
Видео: XviD, 704x400, 1 446 kbps
Аудио: русский, MP3 2.0, 128 kbps

Код:

E:\Фильмы-1\Mech.(25.seriy.iz.25).2009.XviD.DVDRip.avi\Mech.(01.seriya.iz.25).2009.XviD.DVDRip.avi
   General
      Complete name : E:\Фильмы-1\Mech.(25.seriy.iz.25).2009.XviD.DVDRip.avi\Mech.(01.seriya.iz.25).2009.XviD.DVDRip.avi
      Format : AVI
      Format/Info : Audio Video Interleave
      File size : 544 MiB
      Duration : 48mn 3s
      Overall bit rate : 1 583 Kbps
      Writing application : VirtualDubMod 1.5.10.2 (build 2540/release)
      Writing library : VirtualDubMod build 2540/release
   Video #0
      ID : 0
      Format : MPEG-4 Visual
      Format profile : Advanced Simple@L5
      Format settings, BVOP : 2
      Format settings, QPel : No
      Format settings, GMC : No warppoints
      Format settings, Matrix : Default (MPEG)
      Codec ID : XVID
      Codec ID/Hint : XviD
      Duration : 48mn 3s
      Bit rate : 1 446 Kbps
      Width : 704 pixels
      Height : 400 pixels
      Display aspect ratio : 16:9
      Frame rate : 25.000 fps
      Color space : YUV
      Chroma subsampling : 4:2:0
      Bit depth : 8 bits
      Scan type : Progressive
      Compression mode : Lossy
      Bits/(Pixel*Frame) : 0.205
      Stream size : 497 MiB (91%)
      Writing library : XviD 1.2.1 (UTC 2008-12-04)
   Audio #1
      ID : 1
      Format : MPEG Audio
      Format version : Version 1
      Format profile : Layer 3
      Codec ID : 55
      Codec ID/Hint : MP3
      Duration : 48mn 3s
      Bit rate mode : Constant
      Bit rate : 128 Kbps
      Channel(s) : 2 channels
      Sampling rate : 48.0 KHz
      Compression mode : Lossy
      Stream size : 44.0 MiB (8%)
      Alignment : Aligned on interleaves
      Interleave, duration : 40 ms (1.00 video frame)
      Interleave, preload duration : 504 ms
      Writing library : LAME3.98r
      Encoding settings : -m s -V 4 -q 2 -lowpass 17 -b 128
picpicpicpicpicpic
Для увеличения картинки щелкните мышкой по превью

Этот торрент недоступен для скачивания без регистрации, однако доступен по публичной magnet-ссылке (источники с публичных трекеров). Перед использованием ссылки прочтите, пожалуйста Пользовательское соглашение, а также как можно дольше оставайтесь на раздаче! Для того, чтобы скачать сам торрент-файл (который видит больше источников), а также для того, чтобы поблагодарить релизера, вам необходимо зарегистрироваться. Если регистрироваться лень - вы можете также попробовать скачать релиз по нашим партнерским ссылкам ниже.

[underverse.su].t55297.torrent
Трекер: Зарегистрирован   [ 15.06.2015 20:22 ]  

Статус: проверено (by nemos at 16.06.2015 06:20)
Поблагодарили: пока никто не поблагодарил...
Тип торрента: публичный - доступные источники с открытых трекеров: 
Размер: 12,97 GB (занимает 2,96 DVDR, для записи нужно 3 болванки DVDR/RW)
 
 

Яндекс.Метрика powered by Sphinx


В Н И М А Н И Е
Сайт не распространяет и не хранит электронные версии произведений, а лишь бесплатно и без коммерческой выгоды (не требуя взамен платы,
SMS и т.д.) предоставляет доступ к создаваемому пользователями каталогу ссылок на торрент-файлы, которые содержат только списки хеш-сумм.
Убедительная просьба с жалобами обращаться напрямую к пользователю, разместившему торрент файл.

Вверх