Loading...
Error

Меч (2 сезон: 1-20 серии из 20) (Алексей Луканев) [2015 г., боевик, детектив, криминал, SatRip]

Статистика раздачи
Размер:  12,1 GB   |    Зарегистрирован:  1 год 5 месяцев   |    Скачан:  15 раз

Полного источника не было: 1 месяц 28 дней

Сидов:  0  |  0 KB/s  ]   Личеров:  0  |  0 KB/s  ]

* - сиды/пиры с внешних источников

   
 
Автор Сообщение

nemos Пол:Муж

15-Июн-2015 19:41

Меч-2


Год выпуска: 2015
Жанр: боевик, детектив, криминал
Страна: Россия
Режиссер: Алексей Луканев
В ролях: Эдуард Флёров, Роман Курцын, Дарья Повереннова, Александр Фисенко, Нина Гогаева, Макс Туранцев, Виктория Фишер, Владислав Павлов, Максим Щёголев, Тимур Ефременков, Анна Шевченко, Артур Сопельник, Дмитрий Архангельский, Александр Лырчиков, Андрей Курилов, Владислав Шкляев, Анна Глазкова, Никита Абдулов, Александр Курицын, Евгений Смирнов-Иваницкий, Анатолий Завьялов, Михаил Инчин, Дмитрий Пищулин

Сюжет фильма:
Карательная организация «Меч», созданная для борьбы с преступниками, ушедшими от правосудия, постепенно восстанавливается. Максим Калинин, получивший тяжелые ранения, постепенно приходит в себя и собирает новую команду. Часть ее - знакомые люди, часть - новые, не менее преданные делу герои. Вместе они снова будут противостоять преступности на улицах Москвы. Участники «Меча» по-прежнему находятся на грани: с одной стороны, криминальный мир, который объявляет огромные деньги за их поимку, с другой - правоохранительные органы, которые охотятся на «оборотней».
Качество видео: SatRip

Продолжительность: 00:44:21 серия
Формат: AVI
Видео: XviD, 720x448, 1 800 kbps
Аудио: 48 kHz, MPEG Layer 3, 2 ch, ~128.00 kbps avg

Код:

E:\Фильмы-1\Mech.2.SATRip\Mech.2.01.SATRip.avi
   General
      Complete name : E:\Фильмы-1\Mech.2.SATRip\Mech.2.01.SATRip.avi
      Format : AVI
      Format/Info : Audio Video Interleave
      File size : 615 MiB
      Duration : 44mn 21s
      Overall bit rate : 1 938 Kbps
      Writing application : VirtualDubMod 1.5.10.3 | www.virtualdub-fr.org || (build 2550/release)
      Writing library : VirtualDubMod build 2550/release
   Video #0
      ID : 0
      Format : MPEG-4 Visual
      Format profile : Advanced Simple@L5
      Format settings, BVOP : 2
      Format settings, QPel : No
      Format settings, GMC : No warppoints
      Format settings, Matrix : Default (MPEG)
      Codec ID : XVID
      Codec ID/Hint : XviD
      Duration : 44mn 21s
      Bit rate : 1 800 Kbps
      Width : 720 pixels
      Height : 448 pixels
      Display aspect ratio : 1.607
      Frame rate : 25.000 fps
      Color space : YUV
      Chroma subsampling : 4:2:0
      Bit depth : 8 bits
      Scan type : Progressive
      Compression mode : Lossy
      Bits/(Pixel*Frame) : 0.223
      Stream size : 571 MiB (93%)
      Writing library : XviD 1.2.1 (UTC 2008-12-04)
   Audio #1
      ID : 1
      Format : MPEG Audio
      Format version : Version 1
      Format profile : Layer 3
      Mode : Joint stereo
      Codec ID : 55
      Codec ID/Hint : MP3
      Duration : 44mn 21s
      Bit rate mode : Constant
      Bit rate : 128 Kbps
      Channel(s) : 2 channels
      Sampling rate : 48.0 KHz
      Compression mode : Lossy
      Stream size : 40.6 MiB (7%)
      Alignment : Aligned on interleaves
      Interleave, duration : 40 ms (1.00 video frame)
      Interleave, preload duration : 504 ms
      Writing library : LAME3.99r
      Encoding settings : -m j -V 4 -q 9 -lowpass 17 -b 128
picpicpicpicpicpicpic
Для увеличения картинки щелкните мышкой по превью

Этот торрент недоступен для скачивания без регистрации, однако доступен по публичной magnet-ссылке (источники с публичных трекеров). Перед использованием ссылки прочтите, пожалуйста Пользовательское соглашение, а также как можно дольше оставайтесь на раздаче! Для того, чтобы скачать сам торрент-файл (который видит больше источников), а также для того, чтобы поблагодарить релизера, вам необходимо зарегистрироваться. Если регистрироваться лень - вы можете также попробовать скачать релиз по нашим партнерским ссылкам ниже.

[underverse.su].t55505.torrent
Трекер: Зарегистрирован   [ 25.06.2015 16:49 ]  

Статус: проверено (by nemos at 25.06.2015 16:49)
Поблагодарили: пока никто не поблагодарил...
Тип торрента: публичный - доступные источники с открытых трекеров: 
Размер: 12,1 GB (занимает 2,76 DVDR, для записи нужно 3 болванки DVDR/RW)
 
 
Похожие темы
Форум Тема Автор Торрент Отв. Посл. сооб.
xUSSR сериалы [BD / Remux / BDRip / WEB-DL / HDTV 1080/720р] Меч (2 сезон: 1-20 серии из 20) (Алексей Луканев) [2015 г., боевик, детектив, криминал, HDTVRip-AVC] nemos
0 | 0

0 | 700

19

26.06.2015 16:06



Последний раз редактировалось: nemos (26.06.2015 21:16), всего редактировалось 8 раз(а)

nemos Пол:Муж

19-Июн-2015 16:29

Раздача обновлена! Добавлены серии: 1-20

Яндекс.Метрика powered by Sphinx


В Н И М А Н И Е
Сайт не распространяет и не хранит электронные версии произведений, а лишь бесплатно и без коммерческой выгоды (не требуя взамен платы,
SMS и т.д.) предоставляет доступ к создаваемому пользователями каталогу ссылок на торрент-файлы, которые содержат только списки хеш-сумм.
Убедительная просьба с жалобами обращаться напрямую к пользователю, разместившему торрент файл.

Вверх