Loading...
Error

Сын Рэмбо / Son of Rambow / Der Sohn von Rambow (Гарт Дженнингс) [2007 г., мелодрама, комедия, семейный, HDRip] MVO

Статистика раздачи
Размер:  1,37 GB   |    Зарегистрирован:  1 год 5 месяцев   |    Скачан:  6 раз

Полного источника не было: 1 год 3 месяца

Сидов:  0  |  0 KB/s  ]   Личеров:  0  |  0 KB/s  ]

* - сиды/пиры с внешних источников

   
 
Автор Сообщение

makkol Пол:Муж

14-Июн-2015 12:12

Сын Рэмбо / Son of Rambow / Der Sohn von Rambow
«Make Believe. Not War»


Год выпуска: 2007
Жанр: мелодрама, комедия, семейный
Страна: Германия , Франция , Великобритания
Режиссер: Гарт Дженнингс
В ролях: Нил Даджон, Билл Милнер, Джессика Хайнс, Анна Уинг, Уилл Поултер, Таллула Эванс, Эмили Шеcнэ, Пол Риттер, Финола МакМахон, Тейлор Ричардсон, Питер Робинсон, Чарли Трифт, Жюль Ситрук
Сюжет фильма:
Англия 1980-х годов. Уилл растет без отца в семье, члены которой считают себя избранниками Господа и гордятся своей строгой моралью. А это значит, что Уиллу недоступно насладиться простыми земными радостями — например, послушать музыку или посмотреть телевизор. Знакомство со сверстником Ли Картером, который дает ему посмотреть пиратскую копию «Рэмбо», переворачивает его представления о мире. Картер увлекается любительской съемкой, и мальчишки принимают решение: объединив усилия, снять собственное кино…

  • Мировая премьера: 22 января 2007


Качество видео: HDRip

Продолжительность: 01:35:33
Формат: AVI
Видео: XviD, 704x288 (2.40:1), 23.976 fps, 1596 kbps
Аудио: русский, профессиональный многоголосый закадровый (НТВ+), AC3 5.1, 48 kHz, 448 kbps

Код:

Общее
Полное имя : Son.of.Rambo HDRip.avi
Формат : AVI
Формат/Информация : Audio Video Interleave
Размер файла : 1,37 Гбайт
Продолжительность : 1 ч. 35 м.
Общий поток : 2054 Кбит/сек
Программа кодирования : VirtualDubMod 1.5.10.3 | www.virtualdub-fr.org || (build 2550/release)
Библиотека кодирования : VirtualDubMod build 2550/release

Видео
Идентификатор : 0
Формат : MPEG-4 Visual
Профиль формата : Advanced Simple@L5
Параметр BVOP формата : 2
Параметр QPel формата : Нет
Параметр GMC формата : Без точки перехода
Параметр матрицы формата : Default (MPEG)
Идентификатор кодека : XVID
Идентификатор кодека/Подсказка : XviD
Продолжительность : 1 ч. 35 м.
Битрейт : 1597 Кбит/сек
Ширина : 704 пикс.
Высота : 288 пикс.
Соотношение сторон : 2,40:1
Частота кадров : 23,976 кадр/сек
Цветовое пространство : YUV
Подвыборка цветности : 4:2:0
Битовая глубина : 8 бит
Тип развёртки : Прогрессивная
Метод сжатия : С потерями
Бит/(Пиксели*Кадры) : 0.328
Размер потока : 1,07 Гбайт (78%)
Библиотека кодирования : XviD 58

Аудио
Идентификатор : 1
Формат : AC-3
Формат/Информация : Audio Coding 3
Расширение режима : CM (complete main)
Идентификатор кодека : 2000
Продолжительность : 1 ч. 35 м.
Вид битрейта : Постоянный
Битрейт : 448 Кбит/сек
Канал(ы) : 6 канала(ов)
Расположение каналов : Front: L C R, Side: L R, LFE
Частота : 48,0 КГц
Битовая глубина : 16 бит
Метод сжатия : С потерями
Размер потока : 306 Мбайт (22%)
Выравнивание : Разделение по промежуткам
Продолжительность промежутка : 42 мс. (1,00 видеокадр)
Время предзагрузки промежутка : 500 ms
Сэмпл

picpicpicpicpic
Для увеличения картинки щелкните мышкой по превью

Этот торрент недоступен для скачивания без регистрации, однако доступен по публичной magnet-ссылке (источники с публичных трекеров). Перед использованием ссылки прочтите, пожалуйста Пользовательское соглашение, а также как можно дольше оставайтесь на раздаче! Для того, чтобы скачать сам торрент-файл (который видит больше источников), а также для того, чтобы поблагодарить релизера, вам необходимо зарегистрироваться. Если регистрироваться лень - вы можете также попробовать скачать релиз по нашим партнерским ссылкам ниже.

[underverse.su].t55280.torrent
Трекер: Зарегистрирован   [ 14.06.2015 12:12 ]  

Статус: проверено (by makkol at 01.08.2015 10:39)
Поблагодарили: пока никто не поблагодарил...
Тип торрента: публичный - доступные источники с открытых трекеров: 
Размер: 1,37 GB (занимает 0,31 DVDR, для записи нужно 1 болванка DVDR/RW)
 
 
Похожие темы
Форум Тема Автор Торрент Отв. Посл. сооб.
Зарубежное кино [HDDVDRip / BDRip / WEB-DL / HDTV 1080/720р] Сын Рэмбо / Son of Rambow / Der Sohn von Rambow (Гарт Дженнингс) [2007 г., мелодрама, комедия, семейный, BDRip 720p] MVO + Original + Subs makkol
8 | 0

0 | 269

1

14.06.2015 12:56

Зарубежное кино [HDDVDRip / BDRip / WEB-DL / HDTV 1080/720р] Сын Рэмбо / Son of Rambow / Der Sohn von Rambow (Гарт Дженнингс) [2007 г., мелодрама, комедия, семейный, BDRip 1080p] MVO + Original + Subs makkol
1 | 0

0 | 327

1

14.06.2015 13:20


Яндекс.Метрика powered by Sphinx


В Н И М А Н И Е
Сайт не распространяет и не хранит электронные версии произведений, а лишь бесплатно и без коммерческой выгоды (не требуя взамен платы,
SMS и т.д.) предоставляет доступ к создаваемому пользователями каталогу ссылок на торрент-файлы, которые содержат только списки хеш-сумм.
Убедительная просьба с жалобами обращаться напрямую к пользователю, разместившему торрент файл.

Вверх