Loading...
Error

Странная магия / Странные чары / Strange Magic (Гари Ридстром) [2015 г., мультфильм, фэнтези, семейный, WEB-DLRip] Dub

Статистика раздачи
Размер:  1,37 GB   |    Зарегистрирован:  1 год 5 месяцев   |    Скачан:  31 раз

Полного источника не было: 2 месяца 16 дней

Сидов:  0  |  0 KB/s  ]   Личеров:  0  |  0 KB/s  ]

* - сиды/пиры с внешних источников

   
 
Автор Сообщение

makkol Пол:Муж

13-Июн-2015 14:18

Странная магия / Странные чары / Strange Magic


Год выпуска: 2015
Жанр: мультфильм, фэнтези, семейный
Производство: США, Industrial Light & Magic (ILM), Lucasfilm Animation, Touchstone Pictures
Режиссер: Гари Ридстром
Роли озвучивали: Алан Камминг, Эван Рэйчел Вуд, Элайджа Келли, Мередит Энн Булл, Сэм Палладио, Кристин Ченоуэт, Майя Рудольф, Петер Стормаре, Бренда Чепмен
Сюжет фильма:
Музыкальная сказка о гоблинах, эльфах, феях и бесах, рассказанная под мелодии популярных песен последних шести десятилетий.
Гоблины, эльфы, феи и монстры стремятся завладеть чудодейственным снадобьем. Мультфильм создан по мотивам произведения Шекспира "Сон в летнюю ночь".

  • Мировая премьера: 23 января 2015


Качество видео: WEB-DLRip

Продолжительность: 01:39:38
Формат: AVI
Видео: XviD, 720x304, 23.976 fps, 1571 kbps
Аудио: русский, дублированный (iTunes), AC3 5.1, 48 kHz, 384 kbps
Субтитры: русские вшитые неотключаемые на песни

Код:

Общее
Полное имя                               : Strannaya.Maagiya.2015.D.WEB-DLRip.1400MB.nnm-club.avi
Формат                                   : AVI
Формат/Информация                        : Audio Video Interleave
Размер файла                             : 1,37 Гбайт
Продолжительность                        : 1 ч. 39 м.
Общий поток                              : 1963 Кбит/сек
Программа кодирования                    : VirtualDubMod 1.5.10.2 (build 2540/release)
Библиотека кодирования                   : VirtualDubMod build 2540/release

Видео
Идентификатор                            : 0
Формат                                   : MPEG-4 Visual
Профиль формата                          : Advanced Simple@L5
Параметр BVOP формата                    : 2
Параметр QPel формата                    : Нет
Параметр GMC формата                     : Без точки перехода
Параметр матрицы формата                 : Default (MPEG)
Идентификатор кодека                     : XVID
Идентификатор кодека/Подсказка           : XviD
Продолжительность                        : 1 ч. 39 м.
Битрейт                                  : 1571 Кбит/сек
Ширина                                   : 720 пикселей
Высота                                   : 304 пикселя
Соотношение сторон                       : 2,35:1
Частота кадров                           : 23,976 кадра/сек
Цветовое пространство                    : YUV
Субдискретизация насыщенности            : 4:2:0
Битовая глубина                          : 8 бит
Тип развёртки                            : Прогрессивная
Метод сжатия                             : С потерями
Бит/(Пиксели*Кадры)                      : 0.299
Размер потока                            : 1,09 Гбайт (80%)
Библиотека кодирования                   : XviD 1.2.1 (UTC 2008-12-04)

Аудио
Идентификатор                            : 1
Формат                                   : AC-3
Формат/Информация                        : Audio Coding 3
Расширение режима                        : CM (complete main)
Параметр Endianness формата              : Big
Идентификатор кодека                     : 2000
Продолжительность                        : 1 ч. 39 м.
Вид битрейта                             : Постоянный
Битрейт                                  : 384 Кбит/сек
Каналы                                   : 6 каналов
Расположение каналов                     : Front: L C R, Side: L R, LFE
Частота                                  : 48,0 КГц
Битовая глубина                          : 16 бит
Метод сжатия                             : С потерями
Размер потока                            : 273 Мбайт (20%)
Выравнивание                             : Разделение по промежуткам
Продолжительность промежутка             : 42  мс. (1,00 видеокадр)
Время предзагрузки промежутка            : 500  мс.
Сэмпл

picpicpicpicpic
Для увеличения картинки щелкните мышкой по превью

Этот торрент недоступен для скачивания без регистрации, однако доступен по публичной magnet-ссылке (источники с публичных трекеров). Перед использованием ссылки прочтите, пожалуйста Пользовательское соглашение, а также как можно дольше оставайтесь на раздаче! Для того, чтобы скачать сам торрент-файл (который видит больше источников), а также для того, чтобы поблагодарить релизера, вам необходимо зарегистрироваться. Если регистрироваться лень - вы можете также попробовать скачать релиз по нашим партнерским ссылкам ниже.

[underverse.su].t55266.torrent
Трекер: Зарегистрирован   [ 13.06.2015 14:18 ]  

Статус: T временная (by Паукан at 14.06.2015 17:49)
Поблагодарили: пока никто не поблагодарил...
Тип торрента: публичный - доступные источники с открытых трекеров: 
Размер: 1,37 GB (занимает 0,31 DVDR, для записи нужно 1 болванка DVDR/RW)
 
 
Похожие темы
Форум Тема Автор Торрент Отв. Посл. сооб.
T Мультфильмы [HDDVDRip / BDRip / WEB-DL / HDTV 1080/720р] Странная магия / Странные чары / Strange Magic (Гари Ридстром) [2015 г., мультфильм, фэнтези, семейный, WEB-DL 1080p] Dub + Original makkol
101 | 0

0 | 796

28

13.06.2015 14:36


Яндекс.Метрика powered by Sphinx


В Н И М А Н И Е
Сайт не распространяет и не хранит электронные версии произведений, а лишь бесплатно и без коммерческой выгоды (не требуя взамен платы,
SMS и т.д.) предоставляет доступ к создаваемому пользователями каталогу ссылок на торрент-файлы, которые содержат только списки хеш-сумм.
Убедительная просьба с жалобами обращаться напрямую к пользователю, разместившему торрент файл.

Вверх