Loading...
Error

Гнездо Дракона / Dragon Nest: Warriors' Dawn (Юэфэн Сонг) [2014 г., мультфильм, фэнтези, приключения, семейный, HDRip] Dub

Статистика раздачи
Размер:  1,37 GB   |    Зарегистрирован:  1 год 5 месяцев   |    Скачан:  26 раз

Полного источника не было: 12 дней

Сидов:  0  |  0 KB/s  ]   Личеров:  0  |  0 KB/s  ]

* - сиды/пиры с внешних источников

   
 
Автор Сообщение

makkol Пол:Муж

13-Июн-2015 11:50

Гнездо Дракона / Dragon Nest: Warriors' Dawn


Год выпуска: 2014
Жанр: мультфильм, фэнтези, приключения, семейный
Страна: США , Китай , Франция
Режиссер: Юэфэн Сонг
Роли озвучивали: Ольга Голованова, Нина Александрова, Прохор Чеховской, Михаил Данилюк, Александр Воронов
Сюжет фильма:
Кто бы мог подумать, что всегда неуклюжий, но несомненно талантливый парень станет великим героем, который спасет свою красивейшую планету от пробудившегося зла? Много лет, пока легендарный Черный дракон спал, земля Алтера хранила хрупкий мир между расами людей, эльфов и неведомых нашему миру животных. Когда же он пробудился, охваченные ужасом жители были вынуждены бежать сквозь остров в попытке найти спасение… Наш герой Ламберт в компании своих пушистых компаньонов отправляется в путь полный веселых развлечений и приключений, встречая настоящих друзей и любовь в лице прекрасной эльфийской девочки. Объединившись, они находят тайную дорогу к пещере дракона, а юный воин выполняет возложенную на него важнейшую миссию: он входит в доверие к Черному Дракону, чтобы с честью и юмором выйти победителем.

  • Мировая премьера: 14 мая 2014
  • Российская премьера: 9 апреля 2015


Релиз: Лицензия

Качество видео: HDRip

Продолжительность: 01:30:02
Формат: AVI
Видео: XviD, 720x384 (1,85:1), 24.000 fps, 1717 kbps
Аудио: русский, дублированный, AC3 5.1, 48 kHz, 448 kbps

Код:

Общее
Полное имя                               : Гнездо дракона .2014.D.HDRip.1400Mb.avi
Формат                                   : AVI
Формат/Информация                        : Audio Video Interleave
Размер файла                             : 1,37 Гбайт
Продолжительность                        : 1 ч. 30 м.
Общий поток                              : 2174 Кбит/сек
Программа кодирования                    : VirtualDubMod 1.5.10.2 (build 2540/release)
Библиотека кодирования                   : VirtualDubMod build 2540/release

Видео
Идентификатор                            : 0
Формат                                   : MPEG-4 Visual
Профиль формата                          : Advanced Simple@L5
Параметр BVOP формата                    : 2
Параметр QPel формата                    : Нет
Параметр GMC формата                     : Без точки перехода
Параметр матрицы формата                 : Default (MPEG)
Идентификатор кодека                     : XVID
Идентификатор кодека/Подсказка           : XviD
Продолжительность                        : 1 ч. 30 м.
Битрейт                                  : 1717 Кбит/сек
Ширина                                   : 720 пикселей
Высота                                   : 384 пикселя
Соотношение сторон                       : 1,85:1
Частота кадров                           : 24,000 кадра/сек
Цветовое пространство                    : YUV
Субдискретизация насыщенности            : 4:2:0
Битовая глубина                          : 8 бит
Тип развёртки                            : Прогрессивная
Метод сжатия                             : С потерями
Бит/(Пиксели*Кадры)                      : 0.259
Размер потока                            : 1,08 Гбайт (79%)
Библиотека кодирования                   : XviD 1.2.1 (UTC 2008-12-04)

Аудио
Идентификатор                            : 1
Формат                                   : AC-3
Формат/Информация                        : Audio Coding 3
Расширение режима                        : CM (complete main)
Параметр Endianness формата              : Big
Идентификатор кодека                     : 2000
Продолжительность                        : 1 ч. 30 м.
Вид битрейта                             : Постоянный
Битрейт                                  : 448 Кбит/сек
Каналы                                   : 6 каналов
Расположение каналов                     : Front: L C R, Side: L R, LFE
Частота                                  : 48,0 КГц
Битовая глубина                          : 16 бит
Метод сжатия                             : С потерями
Размер потока                            : 288 Мбайт (21%)
Выравнивание                             : Разделение по промежуткам
Продолжительность промежутка             : 42  мс. (1,00 видеокадр)
Время предзагрузки промежутка            : 500  мс.
Сэмпл

picpicpicpicpic
Для увеличения картинки щелкните мышкой по превью

Этот торрент недоступен для скачивания без регистрации, однако доступен по публичной magnet-ссылке (источники с публичных трекеров). Перед использованием ссылки прочтите, пожалуйста Пользовательское соглашение, а также как можно дольше оставайтесь на раздаче! Для того, чтобы скачать сам торрент-файл (который видит больше источников), а также для того, чтобы поблагодарить релизера, вам необходимо зарегистрироваться. Если регистрироваться лень - вы можете также попробовать скачать релиз по нашим партнерским ссылкам ниже.

[underverse.su].t55245.torrent
Трекер: Зарегистрирован   [ 13.06.2015 11:50 ]  

Статус: проверено (by Паукан at 13.06.2015 12:01)
Поблагодарили: 1 человек
Тип торрента: публичный - доступные источники с открытых трекеров: 
Размер: 1,37 GB (занимает 0,31 DVDR, для записи нужно 1 болванка DVDR/RW)
 
 
Похожие темы
Форум Тема Автор Торрент Отв. Посл. сооб.
T Зарубежные мультфильмы Гнездо Дракона / Dragon Nest: Warriors' Dawn (Юэфэн Сун / Yuefeng Song) [2014 г., фэнтези, приключения, семейный, WEB-DLRip] DVO (R.G. TheAngelOfDeath&SweetySacrifice) + Original (Chi) 90ytr90
0 | 0

0 | 5232

18

27.11.2014 09:46

T Зарубежные мультфильмы Гнездо Дракона / Dragon Nest: Warriors' Dawn (Юэфэн Сун / Yuefeng Song) [2014 г., фэнтези, приключения, семейный, WEB-DLRip-AVC] DVO (R.G. TheAngelOfDeath&SweetySacrifice) + Original (Chi) 90ytr90
1 | 0

0 | 7124

15

27.11.2014 09:54

T Зарубежные мультфильмы Гнездо Дракона / Dragon Nest: Warriors' Dawn (Юэфэн Сун / Yuefeng Song) [2014 г., фэнтези, приключения, семейный, WEB-DLRip] DVO (R.G. TheAngelOfDeath&SweetySacrifice) 90ytr90
0 | 0

0 | 5365

12

27.11.2014 10:02

T Animation Гнездо Дракона / Dragon Nest: Warriors' Dawn (Юуефенг Сонг / Yuefeng Song) [2014 г., мультфильм, фэнтези, приключения, семейный, HDRip] Sub (Rus, Eng) + harsub 90ytr90
0 | 0

0 | 6280

14

02.10.2014 09:32

T Мультфильмы [HDDVDRip / BDRip / WEB-DL / HDTV 1080/720р] Гнездо Дракона / Dragon Nest: Warriors' Dawn (Юэфэн Сун / Yuefeng Song) [2014 г., фэнтези, приключения, семейный, WEBRip 720] DVO (R.G. TheAngelOfDeath&SweetySacrifice) + Original (Chi) 90ytr90
0 | 0

0 | 7350

31

27.11.2014 10:10

Мультфильмы [HDDVDRip / BDRip / WEB-DL / HDTV 1080/720р] Гнездо Дракона / Dragon Nest: Warriors' Dawn (Юэфэн Сонг) [2014 г., мультфильм, фэнтези, приключения, семейный, BDRip 720p] Dub makkol
8 | 0

0 | 7210

19

13.06.2015 12:08

Мультфильмы [HDDVDRip / BDRip / WEB-DL / HDTV 1080/720р] Гнездо Дракона / Dragon Nest: Warriors' Dawn (Юэфэн Сонг) [2014 г., мультфильм, фэнтези, приключения, семейный, BDRip 1080p] Dub makkol
2 | 0

0 | 7403

14

13.06.2015 12:27


Яндекс.Метрика powered by Sphinx


В Н И М А Н И Е
Сайт не распространяет и не хранит электронные версии произведений, а лишь бесплатно и без коммерческой выгоды (не требуя взамен платы,
SMS и т.д.) предоставляет доступ к создаваемому пользователями каталогу ссылок на торрент-файлы, которые содержат только списки хеш-сумм.
Убедительная просьба с жалобами обращаться напрямую к пользователю, разместившему торрент файл.

Вверх