Loading...
Error

Приключения Мортадело и Филимона 3 / Mortadelo y Filemon contra Jimmy el Cachondo (Хавьер Фессер) [2014 г., мультфильм, комедия, приключения, семейный, DVDRip] VO

Статистика раздачи
Размер:  1,55 GB   |    Зарегистрирован:  2 года 3 месяца   |    Скачан:  10 раз

Полного источника не было: 1 год 1 месяц

Сидов:  0  |  0 KB/s  ]   Личеров:  0  |  0 KB/s  ]

* - сиды/пиры с внешних источников

   
 
Автор Сообщение

makkol Пол:Муж

13-Июн-2015 11:03

Приключения Мортадело и Филимона 3 / Mortadelo y Filemón contra Jimmy el Cachondo


Год выпуска: 2014
Жанр: мультфильм, комедия, приключения, семейный
Производство: Испания, Canal+ España, Televisió de Catalunya, Televisión Española
Режиссер: Хавьер Фессер
Роли озвучивали: Карра Элехальде, Джанфри Топера, Гэбриель Шаме, Рамон Ланга, Хосе Алиас, Мариано Венансио, Энрике Вильен, Эмилио Гавира, Берта Охеа
Сюжет фильма:
Криминальный талант Джимми беспрестанно творит зло, и никто не может с ним справится. Неужели не найдётся героев, которые бросят ему вызов? Жители городка дрожат от ужаса. Настало время наших Мортадело и Филемона. Вот уж эти бравые мачо найдут управу на злодея.

  • Мировая премьера: 28 ноября 2014


Качество видео: DVDRip

Продолжительность: 01:32:05
Формат: AVI
Видео: XviD, 720x384, 2100 kbps
Аудио: русский, любительский одноголосый закадровый (A_l_e_x_2000), MP3 2.0, 256 kbps

Код:

Общее
Уникальный идентификатор                 : 316013376092777391287701131109676982880 (0xEDBDF65ED2EDE9F64431A21845C1A260)
Полное имя                               : Mortadelo y Filemon contra Jimmy el cachondo (DVDRip)__RUS.mkv
Формат                                   : Matroska
Версия формата                           : Version 1
Размер файла                             : 1,55 Гбайт
Продолжительность                        : 1 ч. 32 м.
Общий поток                              : 2408 Кбит/сек
Дата кодирования                         : UTC 2015-05-22 12:38:50
Программа кодирования                    : VirtualDubMod 1.5.10.2 (build 2540/release)
Библиотека кодирования                   : libebml-0.7.5 & libmatroska-0.7.7

Видео
Идентификатор                            : 1
Формат                                   : MPEG-4 Visual
Профиль формата                          : Advanced Simple@L5
Параметр BVOP формата                    : Да
Параметр QPel формата                    : Нет
Параметр GMC формата                     : Без точки перехода
Параметр матрицы формата                 : Default (MPEG)
Идентификатор кодека                     : V_MS/VFW/FOURCC / XVID
Идентификатор кодека/Подсказка           : XviD
Продолжительность                        : 1 ч. 32 м.
Битрейт                                  : 2104 Кбит/сек
Ширина                                   : 720 пикселей
Высота                                   : 384 пикселя
Соотношение сторон                       : 1,85:1
Режим частоты кадров                     : Постоянный
Частота кадров                           : 23,976 кадра/сек
Цветовое пространство                    : YUV
Субдискретизация насыщенности            : 4:2:0
Битовая глубина                          : 8 бит
Тип развёртки                            : Прогрессивная
Метод сжатия                             : С потерями
Бит/(Пиксели*Кадры)                      : 0.317
Размер потока                            : 1,35 Гбайт (87%)
Библиотека кодирования                   : XviD 64
Язык                                     : English
Default                                  : Да
Forced                                   : Нет

Аудио
Идентификатор                            : 2
Формат                                   : MPEG Audio
Версия формата                           : Version 1
Профиль формата                          : Layer 3
Режим                                    : Joint stereo
Идентификатор кодека                     : A_MPEG/L3
Идентификатор кодека/Подсказка           : MP3
Продолжительность                        : 1 ч. 32 м.
Вид битрейта                             : Постоянный
Битрейт                                  : 256 Кбит/сек
Каналы                                   : 2 канала
Частота                                  : 44,1 КГц
Метод сжатия                             : С потерями
Размер потока                            : 169 Мбайт (11%)
Библиотека кодирования                   : LAME3.99r
Настройки программы                      : -m j -V 4 -q 3 -lowpass 19.7
Язык                                     : English
Default                                  : Да
Forced                                   : Нет
Сэмпл

picpicpicpicpic
Для увеличения картинки щелкните мышкой по превью

Этот торрент недоступен для скачивания без регистрации, однако доступен по публичной magnet-ссылке (источники с публичных трекеров). Перед использованием ссылки прочтите, пожалуйста Пользовательское соглашение, а также как можно дольше оставайтесь на раздаче! Для того, чтобы скачать сам торрент-файл (который видит больше источников), а также для того, чтобы поблагодарить релизера, вам необходимо зарегистрироваться. Если регистрироваться лень - вы можете также попробовать скачать релиз по нашим партнерским ссылкам ниже.

[underverse.su].t55239.torrent
Трекер: Зарегистрирован   [ 13.06.2015 11:03 ]  

Статус: проверено (by makkol at 19.11.2015 23:15)
Поблагодарили: пока никто не поблагодарил...
Тип торрента: публичный - доступные источники с открытых трекеров: 
Размер: 1,55 GB (занимает 0,35 DVDR, для записи нужно 1 болванка DVDR/RW)
 
 
Похожие темы
Форум Тема Автор Торрент Отв. Посл. сооб.
Зарубежное кино [DVDRip, Low-Res HDRip, и т.д.] Приключения Гекльберри Финна / Die Abenteuer des Huck Finn (Гермина Хунтгебурт) [2013 г., Приключения, BDRip-AVC] Dub Чертёнок
0 | 0

1 | 1434

37

08.06.2013 18:37

Зарубежное кино [DVDRip, Low-Res HDRip, и т.д.] Приключения Гекльберри Финна / Die Abenteuer des Huck Finn ( Гермина Хунтгебурт) [2012 г., Приключения, семейный, DVDRip] Dub Gaarochi
0 | 0

0 | 1705

23

08.06.2013 07:16

Зарубежное кино [DVDRip, Low-Res HDRip, и т.д.] Приключения Гекльберри Финна / Die Abenteuer des Huck Finn (Гермина Хунтгебурт / Hermine Huntgeburth) [2012 г., приключения, семейный, BDRip] Dub + Original 90ytr90
3 | 0

0 | 1145

16

26.08.2013 15:09

T Зарубежное кино [DVDRip, Low-Res HDRip, и т.д.] Приключение двух нянь / Adventures in Babysitting (Джон Шульц / John Schultz) [2016 г., комедия, WEB-DLRip] Dub (чистый звук) 90ytr90
12 | 3

0 | 453

8

03.11.2016 22:02

? Зарубежное кино [DVDRip, Low-Res HDRip, и т.д.] Приключения Затойчи / Adventures Of Zatoichi / Zatoichi sekisho yaburi (Кимиёши Ясуда) [1964 г., боевик, приключения, драма, HDRip] Dryn9
0 | 0

1 | 1097

2

14.04.2014 17:06

Зарубежное кино [DVDRip, Low-Res HDRip, и т.д.] Приключение двух нянь / Adventures in Babysitting (Джон Шульц / John Schultz) [2016 г., комедия, WEB-DLRip-AVC] MVO (АНАНАС) + Original (Eng) + Sub (Rus, Eng) 90ytr90
2 | 0

0 | 666

7

26.10.2016 19:00

T Зарубежное кино [DVDRip, Low-Res HDRip, и т.д.] Приключение двух нянь / Adventures in Babysitting (Джон Шульц / John Schultz) [2016 г., комедия, WEB-DLRip] Dub (чистый звук) 90ytr90
0 | 0

0 | 636

7

26.10.2016 18:41

T Зарубежное кино [DVDRip, Low-Res HDRip, и т.д.] Приключения Паддингтона / Paddington (Пол Кинг) [2014 г., комедия, семейный, HDTVRip] Dub (чистый звук) 90ytr90
5 | 0

2 | 1240

148

08.03.2015 06:53

T Зарубежное кино [DVDRip, Low-Res HDRip, и т.д.] Приключения Паддингтона / Paddington (Пол Кинг) [2014 г., комедия, семейный, HDTVRip] Dub (чистый звук) 90ytr90
0 | 0

0 | 878

15

18.02.2015 06:11

Зарубежное кино [DVDRip, Low-Res HDRip, и т.д.] Приключения викингов / Viking Quest (Тодор Чапканов / Todor Chapkanov) [2014 г., фэнтези, боевик, HDRip] MVO (SDI) 90ytr90
0 | 0

0 | 1745

70

19.03.2015 11:52


Яндекс.Метрика powered by Sphinx


В Н И М А Н И Е
Сайт не распространяет и не хранит электронные версии произведений, а лишь бесплатно и без коммерческой выгоды (не требуя взамен платы,
SMS и т.д.) предоставляет доступ к создаваемому пользователями каталогу ссылок на торрент-файлы, которые содержат только списки хеш-сумм.
Убедительная просьба с жалобами обращаться напрямую к пользователю, разместившему торрент файл.

Вверх