Loading...
Error

Богус / Bogus (Норман Джуисон) [1996 г., фэнтези, комедия, семейный, DVDRip] MVO

Статистика раздачи
Размер:  1,46 GB   |    Зарегистрирован:  1 год 5 месяцев   |    Скачан:  4 раза

Полного источника не было: 1 год 1 месяц

Сидов:  0  |  0 KB/s  ]   Личеров:  0  |  0 KB/s  ]

* - сиды/пиры с внешних источников

   
 
Автор Сообщение

makkol Пол:Муж

12-Июн-2015 23:41

Богус / Bogus
«If you believe in only one thing, believe in Bogus»


Год выпуска: 1996
Жанр: фэнтези, комедия, семейный
Страна: США
Режиссер: Норман Джуисон
В ролях: Вупи Голдберг, Жерар Депардье, Хэйли Джоэл Осмент, Андреа Мартин, Нэнси Трэвис, Дени Мерсье, Уте Лемпер, Шерил Ли Ральф, Барбара Хэмилтон, Эл Уоксмен
Сюжет фильма:
Семилетний Альберт остался один. Он пережил страшное горе — его мама, артистка цирка, погибла в автокатастрофе. Поэтому его отправляют из волшебного Лас-Вегаса в неказистый провинциальный городок. Альберта берет к себе старинная подруга мамы Харриет. Но она совершенно не представляет себе, что делать с ребенком.
И поэтому Альберт и Харриет становятся врагами. А светом в окошке для обоих становится изысканный французский выдумщик Богус. Он помогает не только Альберту, но и Харриет.

  • Мировая премьера: 6 сентября 1996


Качество видео: DVDRip

Продолжительность: 01:52:01
Формат: AVI
Видео: XviD, 704x384 (1.83:1), 23.976 fps, 1669 kbps
Аудио: русский, профессиональный многоголосый закадровый, AC3 2.0, 48 kHz, 192 kbps

Код:

General
    Complete name : Bogus.1996.dvdrip.dexter_lex.avi
    Format : AVI
    Format/Info : Audio Video Interleave
    File size : 1.46 GiB
    Duration : 1h 52mn
    Overall bit rate : 1 870 Kbps
    Writing application : VirtualDubMod 1.5.10.3 | www.virtualdub-fr.org || (build 2550/release)
    Writing library : VirtualDubMod build 2550/release
  Video #0
    ID : 0
    Format : MPEG-4 Visual
    Format profile : Advanced Simple@L5
    Format settings, BVOP : 1
    Format settings, QPel : No
    Format settings, GMC : No warppoints
    Format settings, Matrix : Default (H.263)
    Codec ID : XVID
    Codec ID/Hint : XviD
    Duration : 1h 52mn
    Bit rate : 1 669 Kbps
    Width : 704 pixels
    Height : 384 pixels
    Display aspect ratio : 16:9
    Frame rate : 23.976 fps
    Color space : YUV
    Chroma subsampling : 4:2:0
    Bit depth : 8 bits
    Scan type : Progressive
    Compression mode : Lossy
    Bits/(Pixel*Frame) : 0.258
    Stream size : 1.31 GiB (89%)
    Writing library : XviD 73
  Audio #1
    ID : 1
    Format : AC-3
    Format/Info : Audio Coding 3
    Mode extension : CM (complete main)
    Codec ID : 2000
    Duration : 1h 51mn
    Bit rate mode : Constant
    Bit rate : 192 Kbps
    Channel(s) : 2 channels
    Channel positions : Front: L R
    Sampling rate : 48.0 KHz
    Bit depth : 16 bits
    Compression mode : Lossy
    Stream size : 153 MiB (10%)
    Alignment : Split accross interleaves
    Interleave, duration : 42 ms (1.01 video frame)
    Interleave, preload duration : 500 ms
picpicpicpicpic
Для увеличения картинки щелкните мышкой по превью

Этот торрент недоступен для скачивания без регистрации, однако доступен по публичной magnet-ссылке (источники с публичных трекеров). Перед использованием ссылки прочтите, пожалуйста Пользовательское соглашение, а также как можно дольше оставайтесь на раздаче! Для того, чтобы скачать сам торрент-файл (который видит больше источников), а также для того, чтобы поблагодарить релизера, вам необходимо зарегистрироваться. Если регистрироваться лень - вы можете также попробовать скачать релиз по нашим партнерским ссылкам ниже.

[underverse.su].t55206.torrent
Трекер: Зарегистрирован   [ 12.06.2015 23:41 ]  

Статус: проверено (by Паукан at 13.06.2015 11:49)
Поблагодарили: пока никто не поблагодарил...
Тип торрента: публичный - доступные источники с открытых трекеров: 
Размер: 1,46 GB (занимает 0,33 DVDR, для записи нужно 1 болванка DVDR/RW)
 
 

Яндекс.Метрика powered by Sphinx


В Н И М А Н И Е
Сайт не распространяет и не хранит электронные версии произведений, а лишь бесплатно и без коммерческой выгоды (не требуя взамен платы,
SMS и т.д.) предоставляет доступ к создаваемому пользователями каталогу ссылок на торрент-файлы, которые содержат только списки хеш-сумм.
Убедительная просьба с жалобами обращаться напрямую к пользователю, разместившему торрент файл.

Вверх