Loading...
Error

Утопленник / The Drownsman (Чад Арчибальд) [2014 г., ужасы, фэнтези, триллер, HDRip] VO

Статистика раздачи
Размер:  1,27 GB   |    Зарегистрирован:  1 год 5 месяцев   |    Скачан:  8 раз

Полного источника не было: 10 месяцев

Сидов:  0  |  0 KB/s  ]   Личеров:  0  |  0 KB/s  ]

* - сиды/пиры с внешних источников

   
 
Автор Сообщение

makkol Пол:Муж

11-Июн-2015 23:02

Утопленник / The Drownsman


Год выпуска: 2014
Жанр: ужасы, фэнтези, триллер
Производство: Канада, Black Fawn Films, Breakthrough Entertainment
Режиссер: Чад Арчибальд
В ролях: Мишель Майлетт, Кэролайн Палмер, Джемма Бёрд Мэтисон, Сидни Кондрасс, Клэр Бастейбл, Райан Баррет, Джоан Нордстром, Сэмюэл Борштейн, Деррек Пилс, Бриэнн ТеБукхорст
Сюжет фильма:
Едва не утонув в озере, жизнь Мэдисон начинает наполняться страхом. Не в состоянии описать то, что случилось с ней, когда она была под водой, у девушки начинает развиваться гидрофобия. Измученная своим пост-травматическим стрессом, Мэдисон пытается отгородиться от мира, но её страх усиливается, и она сталкивается с видением тёмной фигуры, которая преследует её днём и ночью. Наблюдая за борьбой девушкой со страхами и видениями, четверо друзей Мэдисон пытаться вмешаться необычным способом, и случайно открывают шлюз в тёмное небезопасное место.

  • Мировая премьера: 2 августа 2014


Качество видео: HDRip

Продолжительность: 01:25:47
Формат: AVI
Видео: XviD, 720x304 (2.35:1), 23.976 fps, 1643 kbps
Аудио: русский, любительский одноголосый закадровый (Павел Морозов aka PashaUp), AC3 5.1, 48 kHz, 384 kbps

Код:

Полное имя                               : The.Drownsman.2014.avi
Формат                                   : AVI
Формат/Информация                        : Audio Video Interleave
Размер файла                             : 1.27 GiB
Продолжительность                        : 1h 25mn
Общий поток                              : 2 120 Kbps
Программа кодирования                    : VirtualDubMod 1.5.10.2 (build 2540/release)
Библиотека кодирования                   : VirtualDubMod build 2540/release

Video
Идентификатор                            : 0
Формат                                   : MPEG-4 Visual
Профиль формата                          : Advanced Simple@L5
Параметр BVOP формата                    : 2
Параметр QPel формата                    : No
Параметр GMC формата                     : No warppoints
Параметр матрицы формата                 : Default (H.263)
Режим смешивания                         : Packed bitstream
Идентификатор кодека                     : XVID
Идентификатор кодека/Подсказка           : XviD
Продолжительность                        : 1h 25mn
Битрейт                                  : 1 643 Kbps
Ширина                                   : 720 pixels
Высота                                   : 304 pixels
Соотношение сторон                       : 2.35:1
Частота кадров                           : 23.976 fps
Цветовое пространство                    : YUV
Субдискретизация насыщенности            : 4:2:0
Битовая глубина                          : 8 bits
Тип развёртки                            : Progressive
Метод сжатия                             : Lossy
Бит/(Пиксели*Кадры)                      : 0.313
Размер потока                            : 1 008 MiB (78%)
Библиотека кодирования                   : XviD 66

Audio
Идентификатор                            : 1
Формат                                   : AC-3
Формат/Информация                        : Audio Coding 3
Расширение режима                        : CM (complete main)
Параметр Endianness формата              : Big
Идентификатор кодека                     : 2000
Продолжительность                        : 1h 25mn
Вид битрейта                             : Constant
Битрейт                                  : 384 Kbps
Каналы                                   : 6 channels
Расположение каналов                     : Front: L C R, Side: L R, LFE
Частота                                  : 48.0 KHz
Битовая глубина                          : 16 bits
Метод сжатия                             : Lossy
Размер потока                            : 236 MiB (18%)
Выравнивание                             : Split accross interleaves
Сэмпл

picpicpicpicpic
Для увеличения картинки щелкните мышкой по превью

Этот торрент недоступен для скачивания без регистрации, однако доступен по публичной magnet-ссылке (источники с публичных трекеров). Перед использованием ссылки прочтите, пожалуйста Пользовательское соглашение, а также как можно дольше оставайтесь на раздаче! Для того, чтобы скачать сам торрент-файл (который видит больше источников), а также для того, чтобы поблагодарить релизера, вам необходимо зарегистрироваться. Если регистрироваться лень - вы можете также попробовать скачать релиз по нашим партнерским ссылкам ниже.

[underverse.su].t55189.torrent
Трекер: Зарегистрирован   [ 11.06.2015 23:02 ]  

Статус: проверено (by Паукан at 12.06.2015 09:23)
Поблагодарили: пока никто не поблагодарил...
Тип торрента: публичный - доступные источники с открытых трекеров: 
Размер: 1,27 GB (занимает 0,29 DVDR, для записи нужно 1 болванка DVDR/RW)
 
 
Похожие темы
Форум Тема Автор Торрент Отв. Посл. сооб.
Зарубежное кино [HDDVDRip / BDRip / WEB-DL / HDTV 1080/720р] Утопленник / The Drownsman (Чад Арчибальд) [2014 г., ужасы, фэнтези, триллер, WEB-DL 720p] VO + Original makkol
1 | 0

0 | 380

12

11.06.2015 23:15


Яндекс.Метрика powered by Sphinx


В Н И М А Н И Е
Сайт не распространяет и не хранит электронные версии произведений, а лишь бесплатно и без коммерческой выгоды (не требуя взамен платы,
SMS и т.д.) предоставляет доступ к создаваемому пользователями каталогу ссылок на торрент-файлы, которые содержат только списки хеш-сумм.
Убедительная просьба с жалобами обращаться напрямую к пользователю, разместившему торрент файл.

Вверх