Loading...
Error

Реклама на радио / Стремящийся ввысь / Планер / Radio Flyer (Ричард Доннер) [1992 г., драма, семейный, WEB-DLRip] MVO

Статистика раздачи
Размер:  1,43 GB   |    Зарегистрирован:  1 год 6 месяцев   |    Скачан:  2 раза

Полного источника не было: 1 год 3 месяца

Сидов:  0  |  0 KB/s  ]   Личеров:  0  |  0 KB/s  ]

* - сиды/пиры с внешних источников

   
 
Автор Сообщение

makkol Пол:Муж

07-Июн-2015 14:54

Реклама на радио / Стремящийся ввысь / Планер / Radio Flyer


Год выпуска: 1992
Жанр: драма, семейный
Производство: США, Columbia Pictures
Режиссер: Ричард Доннер
В ролях: Том Хэнкс, Элайджа Вуд, Джозеф Маццелло, Адам Болдуин, Лоррейн Бракко, Роберт Мунич, Томас Иэн Николас, Бен Джонсон, Джон Херд, Ной Вердузко, Кайлан Ромеро, Шон Бака, Исаак Окампо, Гэретт Рэтлифф Хенсон, Эбрахам Вердучо, Т.Дж. Эванс
Сюжет фильма:
Майк в беседе со своим сыном и его приятелем вспоминает времена своего детства. После того как отец ушел от них, он вместе с матерью, младшим братишкой Бобби и немецкой овчаркой по кличке Шейн переехал в другой город. А вскоре мама снова вышла замуж. Бобби сильно доставалось от нового отчима. Майк часто замечал синяки на теле братишки. Однажды, Майк решил переделать игрушечную модель планера, подаренного мамой, в настоящий самолет и улететь вместе с Бобби в безопасное место…

  • Мировая премьера: 21 февраля 1992


Качество видео: WEB-DLRip

Продолжительность: 01:53:47
Формат: AVI
Видео: XviD, 720x304 (2.37:1), 23.976 fps, 1599 kbps
Аудио: русский, профессиональный многоголосый закадровый, AC3 2.0, 48 kHz, 192 kbps

Код:

Реклама на радио - Radio Flyer [by Edich2].avi
Format : AVI
Format/Info : Audio Video Interleave
File size : 1.43 GiB
Duration : 1h 53mn
Overall bit rate : 1 801 Kbps
Movie name : Реклама на радио - Radio Flyer [by Edich2]
Director : Rip by Edich2
Writing application : VirtualDubMod 1.5.10.2 (build 2540/release)
Comment : *другой трекер*

Video
ID : 0
Format : MPEG-4 Visual
Format profile : Advanced Simple@L5
Format settings, BVOP : 2
Format settings, QPel : No
Format settings, GMC : No warppoints
Format settings, Matrix : Custom
Codec ID : XVID
Codec ID/Hint : XviD
Duration : 1h 53mn
Bit rate : 1 600 Kbps
Width : 720 pixels
Height : 304 pixels
Display aspect ratio : 2.35:1
Frame rate : 23.976 fps
Color space : YUV
Chroma subsampling : 4:2:0
Bit depth : 8 bits
Scan type : Progressive
Compression mode : Lossy
Bits/(Pixel*Frame) : 0.305
Stream size : 1.27 GiB (89%)
Writing library : XviD 1.2.1 (UTC 2008-12-04)

Audio
ID : 1
Format : AC-3
Format/Info : Audio Coding 3
Codec ID : 2000
Duration : 1h 53mn
Bit rate mode : Constant
Bit rate : 192 Kbps
Channel(s) : 2 channels
Sampling rate : 48.0 KHz
Compression mode : Lossy
Stream size : 156 MiB (11%)
Alignment : Split accross interleaves
Interleave, duration : 42 ms (1.00 video frame)
Interleave, preload duration : 500 ms
picpicpicpicpic
Для увеличения картинки щелкните мышкой по превью

Этот торрент недоступен для скачивания без регистрации, однако доступен по публичной magnet-ссылке (источники с публичных трекеров). Перед использованием ссылки прочтите, пожалуйста Пользовательское соглашение, а также как можно дольше оставайтесь на раздаче! Для того, чтобы скачать сам торрент-файл (который видит больше источников), а также для того, чтобы поблагодарить релизера, вам необходимо зарегистрироваться. Если регистрироваться лень - вы можете также попробовать скачать релиз по нашим партнерским ссылкам ниже.

[underverse.su].t55107.torrent
Трекер: Зарегистрирован   [ 07.06.2015 14:54 ]  

Статус: проверено (by Паукан at 09.06.2015 09:09)
Поблагодарили: пока никто не поблагодарил...
Тип торрента: публичный - доступные источники с открытых трекеров: 
Размер: 1,43 GB (занимает 0,33 DVDR, для записи нужно 1 болванка DVDR/RW)
 
 
Похожие темы
Форум Тема Автор Торрент Отв. Посл. сооб.
Зарубежное кино [HDDVDRip / BDRip / WEB-DL / HDTV 1080/720р] Реклама на радио / Стремящийся ввысь / Планер / Radio Flyer (Ричард Доннер) [1992 г., драма, семейный, WEB-DL 720p] MVO + Original makkol
1 | 1

0 | 294

1

07.06.2015 15:09


Яндекс.Метрика powered by Sphinx


В Н И М А Н И Е
Сайт не распространяет и не хранит электронные версии произведений, а лишь бесплатно и без коммерческой выгоды (не требуя взамен платы,
SMS и т.д.) предоставляет доступ к создаваемому пользователями каталогу ссылок на торрент-файлы, которые содержат только списки хеш-сумм.
Убедительная просьба с жалобами обращаться напрямую к пользователю, разместившему торрент файл.

Вверх