Loading...
Error

Золотая зима / Golden Winter (Сэм Мендоти) [2012 г., семейный, DVDRip] DVO + Original

Статистика раздачи
Размер:  1,32 GB   |    Зарегистрирован:  1 год 6 месяцев   |    Скачан:  3 раза
Сидов:  1  |  0 KB/s  ]   Личеров:  0  |  0 KB/s  ]

* - сиды/пиры с внешних источников

   
 
Автор Сообщение

makkol Пол:Муж

07-Июн-2015 14:18

Золотая зима / Golden Winter


Год выпуска: 2012
Жанр: семейный
Производство: США [Global Asylum]
Режиссер: Сэм Мендоти
В ролях: Шеннон Элизабет, Джейсон Брукс, Фрэнк Бенц, Чарльз Бил, Сэм Эллиот Хавермалз, Джо Херсли, Ава Колкер, Джон Конделик, Рэй Лэтт
Сюжет фильма:
В доме осталась собака (золотистый ретривер) со щенками после того, как из этого дома была выселена семья проживавших там людей. Банда детей, ищущая развлечений, забирается в этот дом. Там они пытаются привлечь в банду юного Оливера. Оливер находит этих щенков, ищущих свою мать, которую забрали в собачий приют из пустого дома. У Оливера проблемы с общением с вечно занятыми родителями и он начинает ухаживать за щенками. Оливер находит мать щенков и он надеется уговорить родителей оставить у них мать со щенками. Вместе со щенками Оливер помогает остановить ограбление банка во время Рождества, а затем родители позволяют Оливеру оставить у себя мать и щенков.

  • Мировая премьера: 25 сентября 2012


Качество видео: DVDRip

Продолжительность: 01:29:03
Формат: AVI
Видео: XviD, 680x368, 29.970 fps, 1467 kbps
Аудио #1: русский, профессиональный двухголосый закадровый (телеканал Gulli), AC3 2.0, 48 kHz, 192 kbps
Аудио #2: английский, оригинал, AC3 5.1, 48 kHz, 448 kbps

Код:

Общее
Полное имя                               : Golden.Winter.2012.DVDRip.avi
Формат                                   : AVI
Формат/Информация                        : Audio Video Interleave
Размер файла                             : 1,32 Гбайт
Продолжительность                        : 1 ч. 29 м.
Общий поток                              : 2125 Кбит/сек
Программа кодирования                    : VirtualDubModRus 1.5.10.2 (build 2542/release)
Библиотека кодирования                   : VirtualDubMod build 2542/release

Видео
Идентификатор                            : 0
Формат                                   : MPEG-4 Visual
Профиль формата                          : Advanced Simple@L5
Параметр BVOP формата                    : 2
Параметр QPel формата                    : Нет
Параметр GMC формата                     : Без точки перехода
Параметр матрицы формата                 : Default (H.263)
Режим смешивания                         : Сжатый битовый поток
Идентификатор кодека                     : XVID
Идентификатор кодека/Подсказка           : XviD
Продолжительность                        : 1 ч. 29 м.
Битрейт                                  : 1467 Кбит/сек
Ширина                                   : 680 пикселей
Высота                                   : 368 пикселей
Соотношение сторон                       : 1,85:1
Частота кадров                           : 29,970 кадров/сек
Цветовое пространство                    : YUV
Субдискретизация насыщенности            : 4:2:0
Битовая глубина                          : 8 бит
Тип развёртки                            : Прогрессивная
Метод сжатия                             : С потерями
Бит/(Пиксели*Кадры)                      : 0.196
Размер потока                            : 935 Мбайт (69%)
Библиотека кодирования                   : XviD 64

Аудио #1
Идентификатор                            : 1
Формат                                   : AC-3
Формат/Информация                        : Audio Coding 3
Расширение режима                        : CM (complete main)
Параметр Endianness формата              : Big
Идентификатор кодека                     : 2000
Продолжительность                        : 1 ч. 29 м.
Вид битрейта                             : Постоянный
Битрейт                                  : 192 Кбит/сек
Каналы                                   : 2 канала
Расположение каналов                     : Front: L R
Частота                                  : 48,0 КГц
Битовая глубина                          : 16 бит
Метод сжатия                             : С потерями
Размер потока                            : 122 Мбайт (9%)
Выравнивание                             : Разделение по промежуткам
Продолжительность промежутка             : 33  мс. (1,00 видеокадр)
Время предзагрузки промежутка            : 500  мс.

Аудио #2
Идентификатор                            : 2
Формат                                   : AC-3
Формат/Информация                        : Audio Coding 3
Расширение режима                        : CM (complete main)
Параметр Endianness формата              : Big
Идентификатор кодека                     : 2000
Продолжительность                        : 1 ч. 29 м.
Вид битрейта                             : Постоянный
Битрейт                                  : 448 Кбит/сек
Каналы                                   : 6 каналов
Расположение каналов                     : Front: L C R, Side: L R, LFE
Частота                                  : 48,0 КГц
Битовая глубина                          : 16 бит
Метод сжатия                             : С потерями
Размер потока                            : 285 Мбайт (21%)
Выравнивание                             : Соединение по промежуткам
Продолжительность промежутка             : 33  мс. (1,00 видеокадр)
Время предзагрузки промежутка            : 512  мс.
picpicpicpicpic
Для увеличения картинки щелкните мышкой по превью

Этот торрент недоступен для скачивания без регистрации, однако доступен по публичной magnet-ссылке (источники с публичных трекеров). Перед использованием ссылки прочтите, пожалуйста Пользовательское соглашение, а также как можно дольше оставайтесь на раздаче! Для того, чтобы скачать сам торрент-файл (который видит больше источников), а также для того, чтобы поблагодарить релизера, вам необходимо зарегистрироваться. Если регистрироваться лень - вы можете также попробовать скачать релиз по нашим партнерским ссылкам ниже.

[underverse.su].t55106.torrent
Трекер: Зарегистрирован   [ 07.06.2015 14:18 ]  

Статус: проверено (by makkol at 05.11.2015 12:00)
Поблагодарили: 1 человек
Тип торрента: публичный - доступные источники с открытых трекеров: 
Размер: 1,32 GB (занимает 0,3 DVDR, для записи нужно 1 болванка DVDR/RW)
 
 
Похожие темы
Форум Тема Автор Торрент Отв. Посл. сооб.
Зарубежное кино [HDDVDRip / BDRip / WEB-DL / HDTV 1080/720р] Золотая зима / Golden Winter (Сэм Мендоти) [2012 г., комедия, семейный, BDRip 1080p] DVO + Original makkol
1 | 0

0 | 311

1

30.06.2015 15:12



Последний раз редактировалось: makkol (05.11.2015 11:59), всего редактировалось 1 раз

Яндекс.Метрика powered by Sphinx


В Н И М А Н И Е
Сайт не распространяет и не хранит электронные версии произведений, а лишь бесплатно и без коммерческой выгоды (не требуя взамен платы,
SMS и т.д.) предоставляет доступ к создаваемому пользователями каталогу ссылок на торрент-файлы, которые содержат только списки хеш-сумм.
Убедительная просьба с жалобами обращаться напрямую к пользователю, разместившему торрент файл.

Вверх