Loading...
Error

Смейся, убийца, смейся / Laugh Killer Laugh (Камаль Ахмед) [2015 г., криминальный, HDTVRip] DVO

Статистика раздачи
Размер:  1,29 GB   |    Зарегистрирован:  1 год 5 месяцев   |    Скачан:  17 раз

Полного источника не было: 4 месяца 17 дней

Сидов:  0  |  0 KB/s  ]   Личеров:  0  |  0 KB/s  ]

* - сиды/пиры с внешних источников

   
 
Автор Сообщение

makkol Пол:Муж

06-Июн-2015 22:27

Смейся, убийца, смейся / Laugh Killer Laugh


Год выпуска: 2015
Жанр: криминальный
Производство: США, Seven Toro Productions
Режиссер: Камаль Ахмед
В ролях: Уильям Форсайт, Бьянка Хантер, Том Сайзмор, Виктор Количчио, Ларри Романо, Роберт МакНотон, Урсула Андерман, Роберт Аренсен, Денни Бесс
Сюжет фильма:
Вор по имени Фрэнк "камень", анти-социальный, застенчивый человек, который не находит радости или юмора в чем угодно - до тех пор, пока он не пробуждается от глубокой комы с измененной личностью.

  • Мировая премьера: 24 апреля 2015


Качество видео: HDTVRip

Продолжительность: 01:37:17
Формат: AVI
Видео: XviD, 720x400, 1700 kbps
Аудио: русский, любительский двухголосый закадровый (ColdFilm), MP3 2.0, 192 kbps

Код:

Общее
Полное имя : Laugh.Killer.Laugh.2015.L2.HDTVRip.avi
Формат : AVI
Формат/Информация : Audio Video Interleave
Размер файла : 1,29 Гбайт
Продолжительность : 1 ч. 37 м.
Общий поток : 1897 Кбит/сек
Программа кодирования : VirtualDubMod 1.5.10.2 (build 2540/release)
Библиотека кодирования : VirtualDubMod build 2540/release

Видео
Идентификатор : 0
Формат : xvid
Идентификатор кодека : xvid
Продолжительность : 1 ч. 37 м.
Битрейт : 1695 Кбит/сек
Ширина : 720 пикселей
Высота : 400 пикселей
Соотношение сторон : 16:9
Частота кадров : 23,976 кадра/сек
Бит/(Пиксели*Кадры) : 0.246
Размер потока : 1,16 Гбайт (89%)

Аудио
Идентификатор : 1
Формат : MPEG Audio
Версия формата : Version 1
Профиль формата : Layer 3
Идентификатор кодека : 55
Идентификатор кодека/Подсказка : MP3
Продолжительность : 1 ч. 37 м.
Вид битрейта : Постоянный
Битрейт : 192 Кбит/сек
Каналы : 2 канала
Частота : 44,1 КГц
Метод сжатия : С потерями
Размер потока : 134 Мбайт (10%)
Выравнивание : Разделение по промежуткам
Продолжительность промежутка : 42 мс. (1,00 видеокадр)
Время предзагрузки промежутка : 500 мс.
Сэмпл

picpicpicpicpic
Для увеличения картинки щелкните мышкой по превью

Этот торрент недоступен для скачивания без регистрации, однако доступен по публичной magnet-ссылке (источники с публичных трекеров). Перед использованием ссылки прочтите, пожалуйста Пользовательское соглашение, а также как можно дольше оставайтесь на раздаче! Для того, чтобы скачать сам торрент-файл (который видит больше источников), а также для того, чтобы поблагодарить релизера, вам необходимо зарегистрироваться. Если регистрироваться лень - вы можете также попробовать скачать релиз по нашим партнерским ссылкам ниже.

[underverse.su].t55099.torrent
Трекер: Зарегистрирован   [ 06.06.2015 22:27 ]  

Статус: проверено (by Паукан at 07.06.2015 09:18)
Поблагодарили: пока никто не поблагодарил...
Тип торрента: публичный - доступные источники с открытых трекеров: 
Размер: 1,29 GB (занимает 0,3 DVDR, для записи нужно 1 болванка DVDR/RW)
 
 
Похожие темы
Форум Тема Автор Торрент Отв. Посл. сооб.
Зарубежное кино [DVDRip, Low-Res HDRip, и т.д.] Смейся, убийца, смейся / Laugh Killer Laugh (Камаль Ахмед) [2015 г., драма, криминал, HDRip] MVO makkol
3 | 0

0 | 457

8

02.05.2016 11:11

Зарубежное кино [HDDVDRip / BDRip / WEB-DL / HDTV 1080/720р] Смейся, убийца, смейся / Laugh Killer Laugh (Камаль Ахмед) [2015 г., криминальный, HDTVRip 720p] DVO + Original makkol
0 | 0

0 | 532

9

06.06.2015 22:40

Зарубежное кино [HDDVDRip / BDRip / WEB-DL / HDTV 1080/720р] Смейся, убийца, смейся / Laugh Killer Laugh (Камаль Ахмед) [2015 г., драма, криминал, BDRip 720p] MVO + Original makkol
0 | 0

0 | 392

3

02.05.2016 11:28

Зарубежное кино [HDDVDRip / BDRip / WEB-DL / HDTV 1080/720р] Смейся, убийца, смейся / Laugh Killer Laugh (Камаль Ахмед) [2015 г., драма, криминал, BDRip 1080p] MVO + Original makkol
0 | 1

0 | 409

2

02.05.2016 11:37

val.s.g Пол:Муж

10-Июн-2015 21:44

Смотрел в плохом качестве, прикольный фильм. Надо посмотреть на хорошем экране.

Яндекс.Метрика powered by Sphinx


В Н И М А Н И Е
Сайт не распространяет и не хранит электронные версии произведений, а лишь бесплатно и без коммерческой выгоды (не требуя взамен платы,
SMS и т.д.) предоставляет доступ к создаваемому пользователями каталогу ссылок на торрент-файлы, которые содержат только списки хеш-сумм.
Убедительная просьба с жалобами обращаться напрямую к пользователю, разместившему торрент файл.

Вверх