Loading...
Error

Полное превращение (Филипп Коршунов) [2015 г., комедия, фантастика, DVDRip] Original (RUS)

Статистика раздачи
Размер:  1,37 GB   |    Зарегистрирован:  1 год 6 месяцев   |    Скачан:  52 раза

Полного источника не было: 1 месяц 23 дня

Сидов:  0  |  0 KB/s  ]   Личеров:  0  |  0 KB/s  ]

* - сиды/пиры с внешних источников

   
 
Автор Сообщение

makkol Пол:Муж

02-Июн-2015 21:38

Полное превращение


Год выпуска: 2015
Жанр: комедия, фантастика
Производство: Россия, КАРО-Продакшн
Режиссер: Филипп Коршунов
В ролях: Павел Абдалов, Виталий Кудрявцев, Александра Булычёва, Дмитрий Варшавский, Арина Постникова, Олег Гаас, Наиль Абдрахманов, Ирина Крутик, Сергей Николаев, Александр Наумов
Сюжет фильма:
Главный герой — незадачливый риелтор Дима, жизнь которого — одна сплошная проблема: с работой, с родителями, с девушками…. Он так устал от себя и хочет стать кем-то другим, что случай… предоставляет ему такую возможность. Из рук чудаковатого ученого Дима получает прибор Превращатель, способный превращать любого человека в кого угодно. Пытаясь исправить свои проблемы, Дима меняет обликами двенадцать разных персонажей, и вовлекается в водоворот комических ситуаций, когда сломавшийся прибор начинает совершать превращения по своей воле. Постоянно превращаясь, балансируя на грани разоблачения, Дима распутывает свои проблемы и находит самого себя — доброго, умного парня, который возвращает страсть охладевшим родителям, строит карьеру и находит любовь.

  • Российская премьера: 19 марта 2015

Релиз: Лицензия!

Качество видео: DVDRip

Продолжительность: 01:20:27
Формат: AVI
Видео: XviD, 720x304, 2234 kbps
Аудио: русский, AC3 2.0, 192 kbps

Код:

Общее
Полное имя : D:\Полное превращение.2015.DVDRip.nnm-club.avi
Формат : AVI
Формат/Информация : Audio Video Interleave
Размер файла : 1,37 Гбайт
Продолжительность : 1 ч. 20 м.
Общий поток : 2441 Кбит/сек
Программа кодирования : VirtualDubMod 1.5.10.3 | (build 2550/release)

Видео
Идентификатор : 0
Формат : MPEG-4 Visual
Профиль формата : Advanced Simple@L5
Параметр BVOP формата : 2
Параметр QPel формата : Нет
Параметр GMC формата : Без точки перехода
Параметр матрицы формата : Default (MPEG)
Режим смешивания : Сжатый битовый поток
Идентификатор кодека : XVID
Идентификатор кодека/Подсказка : XviD
Продолжительность : 1 ч. 20 м.
Битрейт : 2234 Кбит/сек
Ширина : 720 пикселей
Высота : 304 пикселя
Соотношение сторон : 2,35:1
Частота кадров : 25,000 кадров/сек
Цветовое пространство : YUV
Субдискретизация насыщенности : 4:2:0
Битовая глубина : 8 бит
Тип развёртки : Прогрессивная
Метод сжатия : С потерями
Бит/(Пиксели*Кадры) : 0.373
Размер потока : 1,15 Гбайт (84%)
Библиотека кодирования : XviD 73

Аудио #1
Идентификатор : 1
Формат : AC-3
Формат/Информация : Audio Coding 3
Расширение режима : CM (complete main)
Параметр Endianness формата : Big
Идентификатор кодека : 2000
Продолжительность : 1 ч. 20 м.
Вид битрейта : Постоянный
Битрейт : 192 Кбит/сек
Каналы : 2 канала
Расположение каналов : Front: L R
Частота : 48,0 КГц
Битовая глубина : 16 бит
Метод сжатия : С потерями
Размер потока : 110 Мбайт (8%)
Выравнивание : Разделение по промежуткам
Продолжительность промежутка : 40 мс. (1,00 видеокадр)
Время предзагрузки промежутка : 500 мс.
Сэмпл

picpicpicpicpic
Для увеличения картинки щелкните мышкой по превью

Этот торрент недоступен для скачивания без регистрации, однако доступен по публичной magnet-ссылке (источники с публичных трекеров). Перед использованием ссылки прочтите, пожалуйста Пользовательское соглашение, а также как можно дольше оставайтесь на раздаче! Для того, чтобы скачать сам торрент-файл (который видит больше источников), а также для того, чтобы поблагодарить релизера, вам необходимо зарегистрироваться. Если регистрироваться лень - вы можете также попробовать скачать релиз по нашим партнерским ссылкам ниже.

[underverse.su].t55008.torrent
Трекер: Зарегистрирован   [ 02.06.2015 21:38 ]  

Статус: проверено (by Паукан at 03.06.2015 21:55)
Поблагодарили: 1 человек
Тип торрента: публичный - доступные источники с открытых трекеров: 
Размер: 1,37 GB (занимает 0,31 DVDR, для записи нужно 1 болванка DVDR/RW)
 
 
Похожие темы
Форум Тема Автор Торрент Отв. Посл. сооб.
Наше кино [DVDRip, Low-Res HDRip, и т.д.] Полное превращение (Филипп Коршунов) [2015 г., комедия, фантастика, DVDRip] nemos
4 | 0

1 | 1804

100

08.06.2015 05:33

T Наше кино [DVDRip, Low-Res HDRip, и т.д.] Полное превращение (Филипп Коршунов) [2015 г., Комедия, Фантастика, WEB-DLRip] Original (RUS, iTunes) Ведьмочка
49 | 0

0 | 539

25

18.06.2015 21:36

T Наше кино [HDDVDRip / BDRip / WEB-DL / HDTV 1080/720р] Полное превращение (Филипп Коршунов) [2015 г., Комедия, Фантастика, WEB-DL 720p] Original (RUS, iTunes) Ведьмочка
26 | 0

0 | 513

13

18.06.2015 21:43

T Наше кино [HDDVDRip / BDRip / WEB-DL / HDTV 1080/720р] Полное превращение (Филипп Коршунов) [2015 г., Комедия, Фантастика, WEB-DL 1080p] Original (RUS, iTunes) Ведьмочка
7 | 0

0 | 686

19

18.06.2015 21:52


Яндекс.Метрика powered by Sphinx


В Н И М А Н И Е
Сайт не распространяет и не хранит электронные версии произведений, а лишь бесплатно и без коммерческой выгоды (не требуя взамен платы,
SMS и т.д.) предоставляет доступ к создаваемому пользователями каталогу ссылок на торрент-файлы, которые содержат только списки хеш-сумм.
Убедительная просьба с жалобами обращаться напрямую к пользователю, разместившему торрент файл.

Вверх