Loading...
Error

Большая игра / Suurriistaa / Big Game (Ялмари Хеландер) [2014 г., боевик, приключения, WEBRip] DVO

Статистика раздачи
Размер:  1,37 GB   |    Зарегистрирован:  1 год 6 месяцев   |    Скачан:  66 раз

Полного источника не было: 8 месяцев

Сидов:  0  |  0 KB/s  ]   Личеров:  0  |  0 KB/s  ]

* - сиды/пиры с внешних источников

   
 
Автор Сообщение

makkol Пол:Муж

01-Июн-2015 23:27

Большая игра / Suurriistaa / Big Game
«Бардак Обмана»


Год выпуска: 2014
Жанр: боевик, приключения
Страна: Финляндия , Великобритания , Германия (Subzero Film Entertainment, Altitude Film Entertainment, Egoli Tossell Film)
Режиссер: Ялмари Хеландер
В ролях: Сэмюэл Л. Джексон, Онни Томмила, Рэй Стивенсон, Виктор Гарбер, Мехмет Куртулус, Тед Левайн, Йорма Томмила, Ристо Сэлми, Фелисити Хаффмен, Джим Бродбент
Сюжет фильма:
История робкого подростка по имени Оскари. Как и его прадеды, согласно традициям, мальчик должен провести один день и одну ночь в непроходимой глуши. Вооружённый только луком и стрелами, он должен вернуться с добычей, которая ознаменует его становление как мужчины. Кто бы мог подумать, что такой добычей станет президент США! Вот так судьба одного из самых влиятельных людей во всем мире оказывается в руках подростка. Вовлеченные в смертельно опасную, но от этого не менее смешную игру в «кошки-мышки», имея всего несколько часов форы — Оскари и Президент США должны сплотиться, чтобы пережить самую необычную ночь в своей жизни.

  • Мировая премьера: 5 сентября 2014
  • Российская премьера: 16 апреля 2015


Качество видео: WEBRip

Продолжительность: 01:26:40
Формат: AVI
Видео: XviD, 720x304 (2.35:1), 1996 kbps
Аудио: русский, любительский двухголосый закадровый (RAIM&NASTR), AC3 2.0, 256 kbps

Код:

Общее
Полное имя                               : Большая игра.avi
Формат                                   : AVI
Формат/Информация                        : Audio Video Interleave
Размер файла                             : 1,37 Гбайт
Продолжительность                        : 1 ч. 26 м.
Общий поток                              : 2261 Кбит/сек
Программа кодирования                    : VirtualDubMod 1.5.10.3 | www.virtualdub-fr.org || (build 2550/release)
Библиотека кодирования                   : VirtualDubMod build 2550/release

Видео
Идентификатор                            : 0
Формат                                   : MPEG-4 Visual
Профиль формата                          : Advanced Simple@L5
Параметр BVOP формата                    : 2
Параметр QPel формата                    : Нет
Параметр GMC формата                     : Без точки перехода
Параметр матрицы формата                 : Default (MPEG)
Режим смешивания                         : Сжатый битовый поток
Идентификатор кодека                     : XVID
Идентификатор кодека/Подсказка           : XviD
Продолжительность                        : 1 ч. 26 м.
Битрейт                                  : 1996 Кбит/сек
Ширина                                   : 720 пикселей
Высота                                   : 304 пикселя
Соотношение сторон                       : 2,35:1
Частота кадров                           : 23,976 кадра/сек
Цветовое пространство                    : YUV
Субдискретизация насыщенности            : 4:2:0
Битовая глубина                          : 8 бит
Тип развёртки                            : Прогрессивная
Метод сжатия                             : С потерями
Бит/(Пиксели*Кадры)                      : 0.380
Размер потока                            : 1,21 Гбайт (88%)
Библиотека кодирования                   : XviD 73

Аудио
Идентификатор                            : 1
Формат                                   : AC-3
Формат/Информация                        : Audio Coding 3
Расширение режима                        : CM (complete main)
Параметр Endianness формата              : Big
Идентификатор кодека                     : 2000
Продолжительность                        : 1 ч. 26 м.
Вид битрейта                             : Постоянный
Битрейт                                  : 256 Кбит/сек
Каналы                                   : 2 канала
Расположение каналов                     : Front: L R
Частота                                  : 48,0 КГц
Битовая глубина                          : 16 бит
Метод сжатия                             : С потерями
Размер потока                            : 159 Мбайт (11%)
Выравнивание                             : Разделение по промежуткам
Продолжительность промежутка             : 42  мс. (1,00 видеокадр)
Время предзагрузки промежутка            : 500  мс.
Сэмпл

picpicpicpicpic
Для увеличения картинки щелкните мышкой по превью

Этот торрент недоступен для скачивания без регистрации, однако доступен по публичной magnet-ссылке (источники с публичных трекеров). Перед использованием ссылки прочтите, пожалуйста Пользовательское соглашение, а также как можно дольше оставайтесь на раздаче! Для того, чтобы скачать сам торрент-файл (который видит больше источников), а также для того, чтобы поблагодарить релизера, вам необходимо зарегистрироваться. Если регистрироваться лень - вы можете также попробовать скачать релиз по нашим партнерским ссылкам ниже.

[underverse.su].t54993.torrent
Трекер: Зарегистрирован   [ 01.06.2015 23:27 ]  

Статус: проверено (by Паукан at 02.06.2015 11:29)
Поблагодарили: 1 человек
Тип торрента: публичный - доступные источники с открытых трекеров: 
Размер: 1,37 GB (занимает 0,31 DVDR, для записи нужно 1 болванка DVDR/RW)
 
 
Похожие темы
Форум Тема Автор Торрент Отв. Посл. сооб.
T Зарубежное кино [DVDRip, Low-Res HDRip, и т.д.] Большая игра / Big Game (Ялмари Хеландер) [2014 г., боевик, приключения, WEB-DLRip] Dub makkol
24 | 0

0 | 553

43

25.06.2015 23:30

T Зарубежное кино [DVDRip, Low-Res HDRip, и т.д.] Большая игра / Big Game (Ялмари Хеландер) [2014 г., боевик, приключения, HDRip] Dub makkol
39 | 2

0 | 553

31

21.07.2015 23:17

T Зарубежное кино [DVDRip, Low-Res HDRip, и т.д.] Большая игра / Big Game (Ялмари Хеландер / Jalmari Helander) [2014 г., боевик, приключения, BDRip-AVC] Dub (iTunes) + Sub (Rus) 90ytr90
34 | 0

0 | 503

16

31.01.2016 13:44

T Зарубежное кино [DVDRip, Low-Res HDRip, и т.д.] Большая игра / Big Game (Ялмари Хеландер / Jalmari Helander) [2014 г., боевик, приключения, BDRip-AVC] Dub (iTunes) + Original (Eng) + Sub (Rus, Eng) 90ytr90
31 | 1

0 | 572

14

31.01.2016 13:51

Зарубежное кино [HDDVDRip / BDRip / WEB-DL / HDTV 1080/720р] Большая игра / State of Play (Кевин МакДональд) [2009 г., Драма, Детектив, BDRip 720p] Dub (Rus) + Original (Eng) + Subs (Rus, Eng) Ведьмочка
3 | 0

0 | 856

10

09.07.2014 13:13

T Зарубежное кино [HDDVDRip / BDRip / WEB-DL / HDTV 1080/720р] Большая игра / Big Game (Ялмари Хеландер) [2014 г., боевик, приключения, WEB-DL 1080p] Dub makkol
56 | 1

0 | 495

31

26.06.2015 00:03

T Зарубежное кино [HDDVDRip / BDRip / WEB-DL / HDTV 1080/720р] Большая игра / Big Game (Ялмари Хеландер) [2014 г., боевик, приключения, BDRip 720p] Dub + Original makkol
23 | 1

0 | 386

15

21.07.2015 23:35

T Зарубежное кино [HDDVDRip / BDRip / WEB-DL / HDTV 1080/720р] Большая игра / Big Game (Ялмари Хеландер) [2014 г., боевик, приключения, BDRip 1080p] Dub + Original + Subs (Eng) makkol
14 | 1

0 | 455

18

22.07.2015 23:07

* Архив Большая игра / State of Play (Кевин МакДональд) [2009 г., триллер, драма, криминал, детектив, HD DVDRip] bokalchik

3 | 2158

29.08.2010 23:52

Архив Большая игра / State of Play (Кевин МакДональд) [2009 г., триллер, драма, детектив, BDRip] GUree
0 | 0

1 | 1601

1

05.11.2011 14:45


Яндекс.Метрика powered by Sphinx


В Н И М А Н И Е
Сайт не распространяет и не хранит электронные версии произведений, а лишь бесплатно и без коммерческой выгоды (не требуя взамен платы,
SMS и т.д.) предоставляет доступ к создаваемому пользователями каталогу ссылок на торрент-файлы, которые содержат только списки хеш-сумм.
Убедительная просьба с жалобами обращаться напрямую к пользователю, разместившему торрент файл.

Вверх