Loading...
Error

Дружина (1-4 серия из 4) (Михаил Колпахчиев) [2015 г., боевик, история, SATRip]

Статистика раздачи
Размер:  2,26 GB   |    Зарегистрирован:  1 год 6 месяцев   |    Скачан:  58 раз
Сидов:  1  |  0 KB/s  ]   Личеров:  0  |  0 KB/s  ]

* - сиды/пиры с внешних источников

   
 
Автор Сообщение

nemos Пол:Муж

01-Июн-2015 04:39

Дружина (2015) SATRip
«Герои рядом»

Производство: Россия
Жанр: боевик, история

Режиссер: Михаил Колпахчиев
Актеры: Сергей Малюгов, Андрей Харабарин, Александр Колесник, Сергей Воробьёв, Александр Эрлих, Геннадий Казачков и др.

Описание:
13-й век. В затерянное в дремучих лесах в небольшое селение прибывает малочисленная дружина — неразговорчивые хмурые воины, про которых говорят, что они понимают язык зверей и умеют заговаривать ветер. Дружине новгородского князя предстоит найти и доставить в Новогород мальчика по имени Александр, которому позже дадут прозвище Невский…

Дата российской премьеры: 24 мая 2015

Продолжительность: ~ 00:44:00 серия
Качество видео: SATRip

Видеокодек: XviD
Битрейт видео: ~1799 kb/s
Размер кадра: 720x400 (16:9)
Аудиокодек: MPEG Layer 3
Битрейт аудио: 128 kb/s, 2 ch
Общее
Полное имя : D:\Дружина (2015) SATRip\01.Дружина.2015.SATRip.avi
Формат : AVI
Формат/Информация : Audio Video Interleave
Размер файла : 615 Мбайт
Продолжительность : 44 м.
Общий поток : 1936 Кбит/сек
Программа кодирования : VirtualDubMod 1.5.10.3 | www.virtualdub-fr.org || (build 2550/release)
Библиотека кодирования : VirtualDubMod build 2550/release

Видео
Идентификатор : 0
Формат : MPEG-4 Visual
Профиль формата : Advanced Simple@L5
Параметр BVOP формата : 2
Параметр QPel формата : Нет
Параметр GMC формата : Без точки перехода
Параметр матрицы формата : Default (MPEG)
Идентификатор кодека : XVID
Идентификатор кодека/Подсказка : XviD
Продолжительность : 44 м.
Битрейт : 1799 Кбит/сек
Ширина : 720 пикселей
Высота : 400 пикселей
Соотношение сторон : 16:9
Частота кадров : 25,000 кадров/сек
Цветовое пространство : YUV
Субдискретизация насыщенности : 4:2:0
Битовая глубина : 8 бит
Тип развёртки : Прогрессивная
Метод сжатия : С потерями
Бит/(Пиксели*Кадры) : 0.250
Размер потока : 572 Мбайт (93%)
Библиотека кодирования : XviD 1.2.1 (UTC 2008-12-04)

Аудио
Идентификатор : 1
Формат : MPEG Audio
Версия формата : Version 1
Профиль формата : Layer 3
Режим : Joint stereo
Расширение режима : MS Stereo
Идентификатор кодека : 55
Идентификатор кодека/Подсказка : MP3
Продолжительность : 44 м.
Вид битрейта : Постоянный
Битрейт : 128 Кбит/сек
Каналы : 2 канала
Частота : 48,0 КГц
Метод сжатия : С потерями
Размер потока : 40,7 Мбайт (7%)
Выравнивание : Соединение по промежуткам
Продолжительность промежутка : 40 мс. (1,00 видеокадр)
Время предзагрузки промежутка : 504 мс.
Библиотека кодирования : LAME3.99r
Настройки программы : -m j -V 4 -q 9 -lowpass 17 -b 128
picpicpicpicpicpicpic

Этот торрент недоступен для скачивания без регистрации, однако доступен по публичной magnet-ссылке (источники с публичных трекеров). Перед использованием ссылки прочтите, пожалуйста Пользовательское соглашение, а также как можно дольше оставайтесь на раздаче! Для того, чтобы скачать сам торрент-файл (который видит больше источников), а также для того, чтобы поблагодарить релизера, вам необходимо зарегистрироваться. Если регистрироваться лень - вы можете также попробовать скачать релиз по нашим партнерским ссылкам ниже.

[underverse.su].t54985.torrent
Трекер: Зарегистрирован   [ 01.06.2015 04:39 ]  

Статус: проверено (by nemos at 01.06.2015 04:40)
Поблагодарили: 5 человек
Тип торрента: публичный - доступные источники с открытых трекеров: 
Размер: 2,26 GB (занимает 0,52 DVDR, для записи нужно 1 болванка DVDR/RW)
 
 

Яндекс.Метрика powered by Sphinx


В Н И М А Н И Е
Сайт не распространяет и не хранит электронные версии произведений, а лишь бесплатно и без коммерческой выгоды (не требуя взамен платы,
SMS и т.д.) предоставляет доступ к создаваемому пользователями каталогу ссылок на торрент-файлы, которые содержат только списки хеш-сумм.
Убедительная просьба с жалобами обращаться напрямую к пользователю, разместившему торрент файл.

Вверх