Loading...
Error

Я есть / Jestem (Дорота Кендежавска) [2005 г., драма, DVDRip-AVC] VO + Original + Subs

Статистика раздачи
Размер:  1,84 GB   |    Зарегистрирован:  1 год 6 месяцев   |    Скачан:  11 раз

Полного источника не было: 3 часа

Сидов:  0  |  0 KB/s  ]   Личеров:  0  |  0 KB/s  ]

* - сиды/пиры с внешних источников

   
 
Автор Сообщение

makkol Пол:Муж

29-Май-2015 14:09

Я есть / Jestem


Год выпуска: 2005
Жанр: драма
Страна: Польша
Режиссер: Дорота Кендежавска
В ролях: Пётр Ягельский, Агнешка Нагожицка, Эдита Йюнговска, Barbara Szkaluba, Павель Вильчак, Марчин Штабиньски, Lucjan Bienkowski, Агнешка Подсядлик, Elzbieta Okupska, Януш Хабёр
Сюжет фильма:
Имя? Фамилия? Какое это имеет значение… Просто сирота, при живых маме и папе, которым он просто не нужен. Смышлёный, работящий, честный, добрый, хозяйственный — и даже мечтает стать поэтом, но кому какое дело до беспризорного бродяги? Пока приличные дети ходят в школу, играют, курят, пьют, нюхают клей — он вынужден весь день копаться по помойкам и сараям, чтобы заработать хоть на какую-нибудь еду и обустроить свой быт на старой барже, такой же брошенной как и он. Но даже в грязи он не теряет достоинства, гордо отказываясь от подачек и делясь последним ломтем хлеба. И пусть взрослые в упор не замечают его бед, шпана пытается его поймать, мама проводит ночи в объятиях кого попало, а первая настоящая любовь тоже слишком мала чтобы ему помочь — он есть. И никакая судьба не сломит того, кто даже крещение изобретёт и выстрадает сам.

  • Мировая премьера: 10 сентября 2005


Качество видео: DVDRip-AVC

Продолжительность: 01:33:04
Формат: MKV
Видео: MPEG-4 AVC, 716x550@1018x550 (1.85:1), 25.000 fps, 2200 kbps
Аудио #1: русский, любительский одноголосый закадровый (viktor_2838), MP3 2.0, 48 kHz, 192 kbps
Аудио #2: польский, оригинал, AC3 5.1, 48 kHz, 448 kbps
Субтитры: русские (HJdsaksjdklklnjkhbdsfsl), английские вшитые отключаемые

Код:

Общее
Уникальный идентификатор                 : 228124756776130564853143735887392057313 (0xAB9F3AE223CE21A68D6B67BA682EA7E1)
Полное имя                               : Jestem.2005.x264.DVDRip.mkv
Формат                                   : Matroska
Версия формата                           : Version 4 / Version 2
Размер файла                             : 1,84 Гбайт
Продолжительность                        : 1 ч. 33 м.
Общий поток                              : 2831 Кбит/сек
Дата кодирования                         : UTC 2015-05-29 12:01:59
Программа кодирования                    : mkvmerge v7.6.0 ('Garden of Dreams') 64bit built on Feb  8 2015 13:04:34
Библиотека кодирования                   : libebml v1.3.1 + libmatroska v1.4.2
DURATION                                 : 01:29:56.073000000
NUMBER_OF_FRAMES                         : 324
NUMBER_OF_BYTES                          : 8807
_STATISTICS_WRITING_APP                  : mkvmerge v7.6.0 ('Garden of Dreams') 64bit built on Feb  8 2015 13:04:34
_STATISTICS_WRITING_DATE_UTC             : 2015-05-29 12:01:59
_STATISTICS_TAGS                         : BPS DURATION NUMBER_OF_FRAMES NUMBER_OF_BYTES

Видео
Идентификатор                            : 1
Формат                                   : AVC
Формат/Информация                        : Advanced Video Codec
Профиль формата                          : High@L3
Параметр CABAC формата                   : Да
Параметр ReFrames формата                : 4 кадра
Идентификатор кодека                     : V_MPEG4/ISO/AVC
Продолжительность                        : 1 ч. 33 м.
Битрейт                                  : 2200 Кбит/сек
Ширина                                   : 716 пикселей
Высота                                   : 550 пикселей
Соотношение сторон                       : 1,85:1
Режим частоты кадров                     : Постоянный
Частота кадров                           : 25,000 кадров/сек
Цветовое пространство                    : YUV
Субдискретизация насыщенности            : 4:2:0
Битовая глубина                          : 8 бит
Тип развёртки                            : Прогрессивная
Бит/(Пиксели*Кадры)                      : 0.223
Размер потока                            : 1,39 Гбайт (75%)
Библиотека кодирования                   : x264 core 130 r2273 b3065e6
Настройки программы                      : cabac=1 / ref=3 / deblock=1:-3:-3 / analyse=0x3:0x113 / me=hex / subme=7 / psy=1 / psy_rd=1.00:0.00 / mixed_ref=1 / me_range=16 / chroma_me=1 / trellis=2 / 8x8dct=1 / cqm=0 / deadzone=21,11 / fast_pskip=0 / chroma_qp_offset=-2 / threads=1 / lookahead_threads=1 / sliced_threads=0 / nr=0 / decimate=1 / interlaced=0 / bluray_compat=0 / constrained_intra=0 / bframes=3 / b_pyramid=2 / b_adapt=2 / b_bias=0 / direct=3 / weightb=1 / open_gop=0 / weightp=2 / keyint=250 / keyint_min=25 / scenecut=40 / intra_refresh=0 / rc_lookahead=60 / rc=abr / mbtree=1 / bitrate=2200 / ratetol=1.0 / qcomp=0.60 / qpmin=0 / qpmax=69 / qpstep=4 / ip_ratio=1.40 / aq=1:1.00
Язык                                     : English
Default                                  : Да
Forced                                   : Нет
Цветовой диапазон                        : Limited
Основные цвета                           : BT.601 PAL
Характеристики трансфера                 : BT.709
Коэффициенты матрицы                     : BT.601

Аудио #1
Идентификатор                            : 2
Формат                                   : MPEG Audio
Версия формата                           : Version 1
Профиль формата                          : Layer 3
Режим                                    : Joint stereo
Расширение режима                        : MS Stereo
Идентификатор кодека                     : A_MPEG/L3
Идентификатор кодека/Подсказка           : MP3
Продолжительность                        : 1 ч. 33 м.
Вид битрейта                             : Постоянный
Битрейт                                  : 192 Кбит/сек
Каналы                                   : 2 канала
Частота                                  : 48,0 КГц
Метод сжатия                             : С потерями
Размер потока                            : 128 Мбайт (7%)
Заголовок                                : VO - viktor_2838
Библиотека кодирования                   : LAME3.96
Язык                                     : Russian
Default                                  : Да
Forced                                   : Нет

Аудио #2
Идентификатор                            : 3
Формат                                   : AC-3
Формат/Информация                        : Audio Coding 3
Расширение режима                        : CM (complete main)
Параметр Endianness формата              : Big
Идентификатор кодека                     : A_AC3
Продолжительность                        : 1 ч. 33 м.
Вид битрейта                             : Постоянный
Битрейт                                  : 448 Кбит/сек
Каналы                                   : 6 каналов
Расположение каналов                     : Front: L C R, Side: L R, LFE
Частота                                  : 48,0 КГц
Битовая глубина                          : 16 бит
Метод сжатия                             : С потерями
Размер потока                            : 298 Мбайт (16%)
Заголовок                                : original
Язык                                     : Polish
Default                                  : Нет
Forced                                   : Нет

Текст #1
Идентификатор                            : 4
Формат                                   : UTF-8
Идентификатор кодека                     : S_TEXT/UTF8
Идентификатор кодека/Информация          : UTF-8 Plain Text
Заголовок                                : HJdsaksjdklklnjkhbdsfsl
Язык                                     : Russian
Default                                  : Да
Forced                                   : Нет

Текст #2
Идентификатор                            : 5
Формат                                   : UTF-8
Идентификатор кодека                     : S_TEXT/UTF8
Идентификатор кодека/Информация          : UTF-8 Plain Text
Язык                                     : English
Default                                  : Нет
Forced                                   : Нет

Меню
00:00:00.000                             : en:Chapter 1
00:03:38.000                             : en:Chapter 2
00:09:46.640                             : en:Chapter 3
00:17:21.680                             : en:Chapter 4
00:24:04.880                             : en:Chapter 5
00:31:46.160                             : en:Chapter 6
00:38:02.960                             : en:Chapter 7
00:48:37.040                             : en:Chapter 8
00:55:29.840                             : en:Chapter 9
01:06:19.760                             : en:Chapter 10
01:18:20.720                             : en:Chapter 11
01:30:38.000                             : en:Chapter 12
picpicpicpicpic
Для увеличения картинки щелкните мышкой по превью

Этот торрент недоступен для скачивания без регистрации, однако доступен по публичной magnet-ссылке (источники с публичных трекеров). Перед использованием ссылки прочтите, пожалуйста Пользовательское соглашение, а также как можно дольше оставайтесь на раздаче! Для того, чтобы скачать сам торрент-файл (который видит больше источников), а также для того, чтобы поблагодарить релизера, вам необходимо зарегистрироваться. Если регистрироваться лень - вы можете также попробовать скачать релиз по нашим партнерским ссылкам ниже.

[underverse.su].t54962.torrent
Трекер: Зарегистрирован   [ 29.05.2015 14:09 ]  

Статус: проверено (by Паукан at 02.06.2015 11:30)
Поблагодарили: 1 человек
Тип торрента: публичный - доступные источники с открытых трекеров: 
Размер: 1,84 GB (занимает 0,42 DVDR, для записи нужно 1 болванка DVDR/RW)
 
 

Яндекс.Метрика powered by Sphinx


В Н И М А Н И Е
Сайт не распространяет и не хранит электронные версии произведений, а лишь бесплатно и без коммерческой выгоды (не требуя взамен платы,
SMS и т.д.) предоставляет доступ к создаваемому пользователями каталогу ссылок на торрент-файлы, которые содержат только списки хеш-сумм.
Убедительная просьба с жалобами обращаться напрямую к пользователю, разместившему торрент файл.

Вверх