Loading...
Error

Впусти меня / Lat den ratte komma in (Томас Альфредсон) [2008 г., ужасы, драма, HDRip] MVO + MVO + Original

Статистика раздачи
Размер:  2,19 GB   |    Зарегистрирован:  1 год 6 месяцев   |    Скачан:  14 раз

Полного источника не было: 1 месяц 14 дней

Сидов:  0  |  0 KB/s  ]   Личеров:  0  |  0 KB/s  ]

* - сиды/пиры с внешних источников

   
 
Автор Сообщение

makkol Пол:Муж

28-Май-2015 13:49

Впусти меня / Lat den ratte komma in


Год выпуска: 2008
Жанр: ужасы, драма
Страна: Швеция
Режиссер: Томас Альфредсон
В ролях: Каре Хедебрант, Лина Леандерссон, Пер Рагнар, Хенрик Даль, Карин Бергкуист, Петер Карлберг, Ика Норд, Микаэль Рахм, Карл-Роберт Линдгрен, Андерс Т. Педу
Сюжет фильма:
Экранизация одноименного романа Йон Айвиде Линдквист. Двенадцатилетний Оскар живет в небольшой деревушке неподалеку от Стокгольма. Днем он подвергается насмешкам и терпеливо сносит унизительные пинки и затрещины, зато ночью он мечтает о мести. Воспитываемый без отца Оскар, ускользнув от присмотра матери, в красках описывает в тетрадке изобретательные и безжалостные убийства его обидчиков. На бумаге он связывает людей, ломает им шеи и высасывает из них кровь. Еще он тренируется метать ножи на заднем дворе. Но однажды ночью он знакомится с девушкой по имени Эли. Она его новая соседка. Два изгоя мгновенно становятся друзьями, Эли учит Оскара храбрости, а Оскар пробуждает в ней жажду любви. Но Эли, увы, этого недостаточно - ее мучает жажда крови...

  • Мировая премьера: 26 января 2008
  • Российская премьера: 29 января 2009


Качество видео: HDRip

Продолжительность: 01:54:52
Формат: AVI
Видео: XviD, 720x304 (2.35:1), 1559 kbps
Аудио #1: русский, профессиональный многоголосый закадровый (R5), AC3 5.1, 384 kbps
Аудио #2: русский, профессиональный многоголосый закадровый (Киномания), AC3 5.1, 384 kbps
Аудио #3: шведский, оригинал, AC3 5.1, 384 kbps

Код:

Общее
Полное имя : Впусти меня.avi
Формат : AVI
Формат/Информация : Audio Video Interleave
Профиль формата : OpenDML
Размер файла : 2,19 Гбайт
Продолжительность : 1 ч. 54 м.
Общий поток : 2731 Кбит/сек
Название фильма : Впусти меня / Lat den ratte komma in (2008)
Режиссёр : miha2154
Программа кодирования : VirtualDubMod 1.5.10.2 (build 2540/release)
Библиотека кодирования : VirtualDubMod build 2540/release
Правообладатель : специально для BitTorrent трекер *другой трекер* (ex *другой трекер*)

Видео
Идентификатор : 0
Формат : MPEG-4 Visual
Профиль формата : Advanced Simple@L5
Параметр BVOP формата : 2
Параметр QPel формата : Нет
Параметр GMC формата : Без точки перехода
Параметр матрицы формата : Default (MPEG)
Идентификатор кодека : XVID
Идентификатор кодека/Подсказка : XviD
Продолжительность : 1 ч. 54 м.
Битрейт : 1559 Кбит/сек
Ширина : 720 пикселей
Высота : 304 пикселя
Соотношение сторон : 2,35:1
Частота кадров : 24,000 кадра/сек
Цветовое пространство : YUV
Субдискретизация насыщенности : 4:2:0
Битовая глубина : 8 бит
Тип развёртки : Прогрессивная
Метод сжатия : С потерями
Бит/(Пиксели*Кадры) : 0.297
Размер потока : 1,25 Гбайт (57%)
Библиотека кодирования : XviD 1.1.0 (UTC 2005-11-22)

Аудио #1
Идентификатор : 1
Формат : AC-3
Формат/Информация : Audio Coding 3
Расширение режима : CM (complete main)
Параметр Endianness формата : Big
Идентификатор кодека : 2000
Продолжительность : 1 ч. 54 м.
Вид битрейта : Постоянный
Битрейт : 384 Кбит/сек
Каналы : 6 каналов
Расположение каналов : Front: L C R, Side: L R, LFE
Частота : 48,0 КГц
Битовая глубина : 16 бит
Метод сжатия : С потерями
Размер потока : 314 Мбайт (14%)
Выравнивание : Разделение по промежуткам
Продолжительность промежутка : 42 мс. (1,00 видеокадр)
Время предзагрузки промежутка : 500 мс.
Заголовок : Профессиональный (многоголосый закадровый) R5

Аудио #2
Идентификатор : 2
Формат : AC-3
Формат/Информация : Audio Coding 3
Расширение режима : CM (complete main)
Параметр Endianness формата : Big
Идентификатор кодека : 2000
Продолжительность : 1 ч. 54 м.
Вид битрейта : Постоянный
Битрейт : 384 Кбит/сек
Каналы : 6 каналов
Расположение каналов : Front: L C R, Side: L R, LFE
Частота : 48,0 КГц
Битовая глубина : 16 бит
Метод сжатия : С потерями
Размер потока : 314 Мбайт (14%)
Выравнивание : Разделение по промежуткам
Продолжительность промежутка : 42 мс. (1,00 видеокадр)
Время предзагрузки промежутка : 500 мс.
Заголовок : Профессиональный (многоголосый закадровый) Киномания

Аудио #3
Идентификатор : 3
Формат : AC-3
Формат/Информация : Audio Coding 3
Расширение режима : CM (complete main)
Параметр Endianness формата : Big
Идентификатор кодека : 2000
Продолжительность : 1 ч. 54 м.
Вид битрейта : Постоянный
Битрейт : 384 Кбит/сек
Каналы : 6 каналов
Расположение каналов : Front: L C R, Side: L R, LFE
Частота : 48,0 КГц
Битовая глубина : 16 бит
Метод сжатия : С потерями
Размер потока : 314 Мбайт (14%)
Выравнивание : Разделение по промежуткам
Продолжительность промежутка : 42 мс. (1,00 видеокадр)
Время предзагрузки промежутка : 500 мс.
Заголовок : Шведский
picpicpicpicpic
Для увеличения картинки щелкните мышкой по превью

Этот торрент недоступен для скачивания без регистрации, однако доступен по публичной magnet-ссылке (источники с публичных трекеров). Перед использованием ссылки прочтите, пожалуйста Пользовательское соглашение, а также как можно дольше оставайтесь на раздаче! Для того, чтобы скачать сам торрент-файл (который видит больше источников), а также для того, чтобы поблагодарить релизера, вам необходимо зарегистрироваться. Если регистрироваться лень - вы можете также попробовать скачать релиз по нашим партнерским ссылкам ниже.

[underverse.su].t54931.torrent
Трекер: Зарегистрирован   [ 28.05.2015 13:49 ]  

Статус: проверено (by Паукан at 28.05.2015 15:00)
Поблагодарили: 1 человек
Тип торрента: публичный - доступные источники с открытых трекеров: 
Размер: 2,19 GB (занимает 0,5 DVDR, для записи нужно 1 болванка DVDR/RW)
 
 
Похожие темы
Форум Тема Автор Торрент Отв. Посл. сооб.
Зарубежное кино [DVDRip, Low-Res HDRip, и т.д.] Впусти меня. Сага / Let Me In (Мэтт Ривз) [2010 г., ужасы, фэнтези, драма,..., DVDRip] WeaSel
0 | 0

1 | 756

2

22.01.2011 09:42

Зарубежное кино [DVD / HDDVD / BD / Remux] Впусти меня. Сага / Let Me In (Мэтт Ривз) [2010 г., фэнтези, драма, ужасы, DVD-9] SKRiptus
0 | 0

0 | 739

1

21.01.2011 14:47

Зарубежное кино [HDDVDRip / BDRip / WEB-DL / HDTV 1080/720р] Впусти меня / Lat den ratte komma in (Томас Альфредсон) [2008 г., ужасы, драма, BDRip 1080p] MVO + AVO + Eng Dub + Original + Subs makkol
9 | 1

0 | 652

0

28.05.2015 14:09


Яндекс.Метрика powered by Sphinx


В Н И М А Н И Е
Сайт не распространяет и не хранит электронные версии произведений, а лишь бесплатно и без коммерческой выгоды (не требуя взамен платы,
SMS и т.д.) предоставляет доступ к создаваемому пользователями каталогу ссылок на торрент-файлы, которые содержат только списки хеш-сумм.
Убедительная просьба с жалобами обращаться напрямую к пользователю, разместившему торрент файл.

Вверх