Loading...
Error

Полустанок (Борис Барнет) [1963 г., мелодрама, комедия, DVDRip]

Статистика раздачи
Размер:  1,36 GB   |    Зарегистрирован:  1 год 6 месяцев   |    Скачан:  13 раз

Полного источника не было: 1 месяц 11 дней

Сидов:  0  |  0 KB/s  ]   Личеров:  0  |  0 KB/s  ]

* - сиды/пиры с внешних источников

   
 
Автор Сообщение

makkol Пол:Муж

27-Май-2015 16:10

Полустанок


Год выпуска: 1963
Жанр: мелодрама, комедия
Производство: СССР, Мосфильм
Режиссер: Борис Барнет
В ролях: Василий Меркурьев, Екатерина Мазурова, Надежда Румянцева, Борис Новиков, Елизавета Никищихина, Александр Потапов, Валерий Рыжаков, Коля Богатырев, Люда Чистякова
Сюжет фильма:
Герой фильма, академик, по совету врачей отправляется на отдых в деревню — подальше от повседневной суеты.
Однако надежды на покой и тишину оказываются напрасными: отпускника против его воли вовлекают в события местного масштаба, столь же забавные, сколь и серьезные. А главное, он обретает новых друзей, с которыми грустно расставаться…

  • Премьера: 24 ноября 1963

Качество видео: DVDRip

Продолжительность: 01:06:45
Формат: AVI
Видео: XviD, 720х560, 2523 kbps
Аудио: русский, AC3 2.0, 128 kbps

Код:

Общее
Полное имя                               : Polustanok.1963.XviD.DVDRip.avi
Формат                                   : AVI
Формат/Информация                        : Audio Video Interleave
Размер файла                             : 1,36 Гбайт
Продолжительность                        : 1 ч. 6 м.
Общий поток                              : 2925 Кбит/сек
Программа кодирования                    : VirtualDubMod 1.5.10.2 (build 2540/release)
Библиотека кодирования                   : VirtualDubMod build 2540/release

Видео
Идентификатор                            : 0
Формат                                   : MPEG-4 Visual
Профиль формата                          : Advanced Simple@L5
Параметр BVOP формата                    : 1
Параметр QPel формата                    : Нет
Параметр GMC формата                     : Без точки перехода
Параметр матрицы формата                 : Default (MPEG)
Идентификатор кодека                     : XVID
Идентификатор кодека/Подсказка           : XviD
Продолжительность                        : 1 ч. 6 м.
Битрейт                                  : 2723 Кбит/сек
Ширина                                   : 720 пикселей
Высота                                   : 560 пикселей
Соотношение сторон                       : 1,286
Частота кадров                           : 25,000 кадров/сек
Цветовое пространство                    : YUV
Субдискретизация насыщенности            : 4:2:0
Битовая глубина                          : 8 бит
Тип развёртки                            : Прогрессивная
Метод сжатия                             : С потерями
Бит/(Пиксели*Кадры)                      : 0.270
Размер потока                            : 1,27 Гбайт (93%)
Библиотека кодирования                   : XviD 1.2.1 (UTC 2008-12-04)

Аудио
Идентификатор                            : 1
Формат                                   : AC-3
Формат/Информация                        : Audio Coding 3
Расширение режима                        : CM (complete main)
Параметр Endianness формата              : Big
Идентификатор кодека                     : 2000
Продолжительность                        : 1 ч. 6 м.
Вид битрейта                             : Постоянный
Битрейт                                  : 192 Кбит/сек
Каналы                                   : 2 канала
Расположение каналов                     : Front: L R
Частота                                  : 48,0 КГц
Битовая глубина                          : 16 бит
Метод сжатия                             : С потерями
Размер потока                            : 91,7 Мбайт (7%)
Выравнивание                             : Разделение по промежуткам
Продолжительность промежутка             : 40  мс. (1,00 видеокадр)
Время предзагрузки промежутка            : 500  мс.
picpicpicpicpic
Для увеличения картинки щелкните мышкой по превью

Этот торрент недоступен для скачивания без регистрации, однако доступен по публичной magnet-ссылке (источники с публичных трекеров). Перед использованием ссылки прочтите, пожалуйста Пользовательское соглашение, а также как можно дольше оставайтесь на раздаче! Для того, чтобы скачать сам торрент-файл (который видит больше источников), а также для того, чтобы поблагодарить релизера, вам необходимо зарегистрироваться. Если регистрироваться лень - вы можете также попробовать скачать релиз по нашим партнерским ссылкам ниже.

[underverse.su].t54906.torrent
Трекер: Зарегистрирован   [ 27.05.2015 16:10 ]  

Статус: проверено (by Паукан at 02.06.2015 11:24)
Поблагодарили: 1 человек
Тип торрента: публичный - доступные источники с открытых трекеров: 
Размер: 1,36 GB (занимает 0,31 DVDR, для записи нужно 1 болванка DVDR/RW)
 
 

Bashmack 

16-Янв-2016 14:56

Я извиняюсь, но, по-моему, Вы допускаете ошибку. Могу это доказать. Пишите мне в PM.

Яндекс.Метрика powered by Sphinx


В Н И М А Н И Е
Сайт не распространяет и не хранит электронные версии произведений, а лишь бесплатно и без коммерческой выгоды (не требуя взамен платы,
SMS и т.д.) предоставляет доступ к создаваемому пользователями каталогу ссылок на торрент-файлы, которые содержат только списки хеш-сумм.
Убедительная просьба с жалобами обращаться напрямую к пользователю, разместившему торрент файл.

Вверх