Loading...
Error

Эхо войны / Echoes of War (Кейн Сенс) [2015 г., триллер, драма, вестерн, WEB-DLRip] DVO

Статистика раздачи
Размер:  1,35 GB   |    Зарегистрирован:  2 года 2 месяца   |    Скачан:  20 раз

Полного источника не было: 1 месяц 17 дней

Сидов:  0  |  0 KB/s  ]   Личеров:  0  |  0 KB/s  ]

* - сиды/пиры с внешних источников

   
 
Автор Сообщение

19Alexandr81 Пол:Муж

27-Май-2015 11:26

Эхо войны / Echoes of War


Год выпуска: 2015
Жанр: триллер, драма, вестерн
Страна: США
Режиссер: Кейн Сенс
В ролях: Джеймс Бэдж Дэйл, Итэн Эмбри, Уильям Форсайт, Майка Монро, Риз Уэйкфилд, Бет Бродерик, Райан О’Нан, Оуэн Тиг
Сюжет фильма:
Ветеран гражданской войны возвращается домой в тихую сельскую местность, но оказывается втянут в противостояние с соседями. Недопонимания и обиды начинают перерастать в тотальный конфликт между семьями Райли и МакКласки.

  • Мировая премьера: 15 апреля 2015


Качество видео: WEB-DLRip

Продолжительность: 01:43:49
Формат: AVI
Видео: XviD, 720x400, 1649 kbps
Аудио: русский, двухголосый закадровый [любительский], MP3 2.0, 192kbps

Код:



Complete name                            : D:\Echoes.Of.War.2015.L2.WEBDLRip.1400MB.avi
Format                                   : AVI
Format/Info                              : Audio Video Interleave
File size                                : 1.35 GiB
Duration                                 : 1h 44mn
Overall bit rate                         : 1 851 Kbps
Writing application                      : VirtualDubMod 1.5.10.2 (build 2540/release)
Writing library                          : VirtualDubMod build 2540/release

Video
ID                                       : 0
Format                                   : xvid
Codec ID                                 : xvid
Duration                                 : 1h 44mn
Bit rate                                 : 1 650 Kbps
Width                                    : 720 pixels
Height                                   : 400 pixels
Display aspect ratio                     : 16:9
Frame rate                               : 23.976 fps
Bits/(Pixel*Frame)                       : 0.239
Stream size                              : 1.20 GiB (89%)

Audio
ID                                       : 1
Format                                   : MPEG Audio
Format version                           : Version 1
Format profile                           : Layer 3
Codec ID                                 : 55
Codec ID/Hint                            : MP3
Duration                                 : 1h 44mn
Bit rate mode                            : Constant
Bit rate                                 : 192 Kbps
Channel count                            : 2 channels
Sampling rate                            : 44.1 KHz
Compression mode                         : Lossy
Stream size                              : 143 MiB (10%)
Alignment                                : Split accross interleaves
Interleave, duration                     : 42 ms (1.00 video frame)
Interleave, preload duration             : 500 ms
Семпл:

picpicpic
Для увеличения картинки щелкните мышкой по превью

Этот торрент недоступен для скачивания без регистрации, однако доступен по публичной magnet-ссылке (источники с публичных трекеров). Перед использованием ссылки прочтите, пожалуйста Пользовательское соглашение, а также как можно дольше оставайтесь на раздаче! Для того, чтобы скачать сам торрент-файл (который видит больше источников), а также для того, чтобы поблагодарить релизера, вам необходимо зарегистрироваться. Если регистрироваться лень - вы можете также попробовать скачать релиз по нашим партнерским ссылкам ниже.

[underverse.su].t54877.torrent
Трекер: Зарегистрирован   [ 27.05.2015 11:26 ]  

Статус: проверено (by Паукан at 28.05.2015 15:37)
Поблагодарили: пока никто не поблагодарил...
Тип торрента: публичный - доступные источники с открытых трекеров: 
Размер: 1,35 GB (занимает 0,31 DVDR, для записи нужно 1 болванка DVDR/RW)
 
 
Похожие темы
Форум Тема Автор Торрент Отв. Посл. сооб.
Зарубежное кино [DVDRip, Low-Res HDRip, и т.д.] Эхо Войны / An Act of War (Райан М. Кеннеди) [2015 г., драма, триллер, WEB-DLRip] VO [Levelin] + Original Паукан
0 | 0

0 | 771

11

08.04.2015 15:30


Яндекс.Метрика powered by Sphinx


В Н И М А Н И Е
Сайт не распространяет и не хранит электронные версии произведений, а лишь бесплатно и без коммерческой выгоды (не требуя взамен платы,
SMS и т.д.) предоставляет доступ к создаваемому пользователями каталогу ссылок на торрент-файлы, которые содержат только списки хеш-сумм.
Убедительная просьба с жалобами обращаться напрямую к пользователю, разместившему торрент файл.

Вверх