Loading...
Error

Повелитель Мух / Lord Of The Flies (Гарри Хук) [1990 г., триллер, драма, приключения, DVDRip] MVO + Original

Статистика раздачи
Размер:  1,33 GB   |    Зарегистрирован:  1 год 6 месяцев   |    Скачан:  12 раз

Полного источника не было: 2 часа 35 минут

Сидов:  0  |  0 KB/s  ]   Личеров:  0  |  0 KB/s  ]

* - сиды/пиры с внешних источников

   
 
Автор Сообщение

makkol Пол:Муж

27-Май-2015 11:09

Повелитель Мух / Lord Of The Flies
«Нет родителей. Нет учителей. Нет правил... Нет пощады»


Год выпуска: 1990
Жанр: триллер, драма, приключения
Производство: США (Castle Rock Entertainment)
Режиссер: Гарри Хук
В ролях: Балтазар Гетти, Крис Феррх, Дэнюэл Пиполи, Бэджетт Дэйл, Эндрю Тэфт, Эдвард Тэфт, Гэри Рул, Терри Уэллс, Брэйден МакДоналд, Энгус Берджин, Мартин Зентц, Брайан Джейкобс, Винсент Эмэбайл, Эверадо Элизондо, Джеймс Хэмм, Чарлз Ньюмарк, Брайан Мэттьюз
Сюжет фильма:
Экранизация романа Уильяма Голдинга.
После падения самолета в море на необитаемом острове спасаются несколько воспитанников военной школы для мальчиков. Им где-то от 8 до 14 лет. Среди них сразу выделяются два лидера — выдержанный и благонравный Ралф (Гетти), выделяющийся благоразумием и воспитанностью, и необузданный, склонный к насилию и жаждущий власти Джэки. Он, следуя всем взрослым правилам популизма, привлекает к себе большую часть мальчишек, создавая свое племя "охотников", думающих только о сегодняшнем дне и добыче. Постепенно он становится абсолютным вождем, превратив остальных в нечто вроде своих рабов. После первого случайного убийства мальчика Саймона вторая человеческая жизнь забирается уже вполне осознанно — убивают очкастого толстяка, прозванного всеми Хрюша. Ралф остается один, и наступает момент, когда Джэки посылает своих охотников травить бывшего товарища. Неплохая киноверсия модели человеческого общества в условиях необитаемого острова, которую в свое время весьма мрачно выстроил сэр Уильям Голдинг. Музыка, выбор натуры, операторская работа, подбор юных актеров и их игра — все на очень высоком уровне...

  • Мировая премьера: 16 марта 1990


Качество видео: DVDRip

Продолжительность: 01:26:33
Формат: AVI
Видео: XviD, 720x384, 1804 kbps
Аудио #1: русский, профессиональный многоголосый закадровый, AC3 2.0, 192 kbps
Аудио #2: английский, оригинал, AC3 2.0, 192 kbps

Код:

Общее
Полное имя                               : D:\Повелитель мух (1990).avi
Формат                                   : AVI
Формат/Информация                        : Audio Video Interleave
Размер файла                             : 1,33 Гбайт
Продолжительность                        : 1 ч. 26 м.
Общий поток                              : 2202 Кбит/сек
Программа кодирования                    : VirtualDubMod 1.5.4.1 (build 2178/release)
Библиотека кодирования                   : VirtualDubMod build 2178/release

Видео
Идентификатор                            : 0
Формат                                   : MPEG-4 Visual
Профиль формата                          : Advanced Simple@L5
Параметр BVOP формата                    : 1
Параметр QPel формата                    : Нет
Параметр GMC формата                     : Без точки перехода
Параметр матрицы формата                 : Выборочная
Идентификатор кодека                     : XVID
Идентификатор кодека/Подсказка           : XviD
Продолжительность                        : 1 ч. 26 м.
Битрейт                                  : 1804 Кбит/сек
Ширина                                   : 720 пикселей
Высота                                   : 384 пикселя
Соотношение сторон                       : 1,85:1
Частота кадров                           : 25,000 кадров/сек
Цветовое пространство                    : YUV
Субдискретизация насыщенности            : 4:2:0
Битовая глубина                          : 8 бит
Тип развёртки                            : Прогрессивная
Метод сжатия                             : С потерями
Бит/(Пиксели*Кадры)                      : 0.261
Размер потока                            : 1,09 Гбайт (82%)
Библиотека кодирования                   : XviD 1.2.0.dev47 (UTC 2006-11-01)

Аудио #1
Идентификатор                            : 1
Формат                                   : AC-3
Формат/Информация                        : Audio Coding 3
Расширение режима                        : CM (complete main)
Параметр Endianness формата              : Big
Идентификатор кодека                     : 2000
Продолжительность                        : 1 ч. 26 м.
Вид битрейта                             : Постоянный
Битрейт                                  : 192 Кбит/сек
Каналы                                   : 2 канала
Расположение каналов                     : Front: L R
Частота                                  : 48,0 КГц
Битовая глубина                          : 16 бит
Метод сжатия                             : С потерями
Размер потока                            : 119 Мбайт (9%)
Выравнивание                             : Соединение по промежуткам
Продолжительность промежутка             : 40  мс. (1,00 видеокадр)
Время предзагрузки промежутка            : 512  мс.

Аудио #2
Идентификатор                            : 2
Формат                                   : AC-3
Формат/Информация                        : Audio Coding 3
Расширение режима                        : CM (complete main)
Параметр Endianness формата              : Big
Идентификатор кодека                     : 2000
Продолжительность                        : 1 ч. 26 м.
Вид битрейта                             : Постоянный
Битрейт                                  : 192 Кбит/сек
Каналы                                   : 2 канала
Расположение каналов                     : Front: L R
Частота                                  : 48,0 КГц
Битовая глубина                          : 16 бит
Метод сжатия                             : С потерями
Размер потока                            : 119 Мбайт (9%)
Выравнивание                             : Разделение по промежуткам
Продолжительность промежутка             : 40  мс. (1,00 видеокадр)
Время предзагрузки промежутка            : 500  мс.
picpicpicpicpic
Для увеличения картинки щелкните мышкой по превью

Этот торрент недоступен для скачивания без регистрации, однако доступен по публичной magnet-ссылке (источники с публичных трекеров). Перед использованием ссылки прочтите, пожалуйста Пользовательское соглашение, а также как можно дольше оставайтесь на раздаче! Для того, чтобы скачать сам торрент-файл (который видит больше источников), а также для того, чтобы поблагодарить релизера, вам необходимо зарегистрироваться. Если регистрироваться лень - вы можете также попробовать скачать релиз по нашим партнерским ссылкам ниже.

[underverse.su].t54875.torrent
Трекер: Зарегистрирован   [ 27.05.2015 11:09 ]  

Статус: проверено (by Паукан at 27.05.2015 13:07)
Поблагодарили: пока никто не поблагодарил...
Тип торрента: публичный - доступные источники с открытых трекеров: 
Размер: 1,33 GB (занимает 0,3 DVDR, для записи нужно 1 болванка DVDR/RW)
 
 
Похожие темы
Форум Тема Автор Торрент Отв. Посл. сооб.
Зарубежное кино [DVDRip, Low-Res HDRip, и т.д.] Повелитель стихий / The Last Airbender (М. Найт Шьямалан) [2010 г., Боевик, Семейный, Фантастика, HD DVDRip] BartSimpson
0 | 0

0 | 859

1

03.11.2010 13:29

Зарубежное кино [DVDRip, Low-Res HDRip, и т.д.] Повелитель бури / The Hurt Locker (Кэтрин Бигилоу / Kathryn Bigelow) [2008 г., Боевик, драма, военный, HDRip] Dub Gaarochi
8 | 0

0 | 1087

9

06.05.2013 19:40

Зарубежное кино [DVDRip, Low-Res HDRip, и т.д.] Повелитель лавин / Prince Avalanche (Дэвид Гордон Грин) [2013 г., драма, комедия, HDRip] MVO (Ozz) + Original 90ytr90
0 | 0

0 | 975

27

08.11.2013 17:00

Зарубежное кино [DVDRip, Low-Res HDRip, и т.д.] Повелитель бури / Взаперти с Болью / The Hurt Locker (Кэтрин Бигилоу / Kathryn Bigelow) [2008 г., боевик, драма, военный, HDRip] MVO 90ytr90
4 | 0

0 | 354

8

12.02.2015 15:52

Зарубежное кино [DVDRip, Low-Res HDRip, и т.д.] Повелитель мух / Lord Of The Flies (Питер Брук) [1963 г., триллер, драма, приключения, DVDRip] DVO + Original makkol
0 | 0

0 | 533

5

26.05.2015 23:16

Зарубежное кино [DVD / HDDVD / BD / Remux] Повелитель бури / The Hurt Locker (Кэтрин Бигилоу) [2008 г.,боевик, триллер, драма, военный, DVD-9] Bratok
0 | 0

0 | 885

3

20.02.2010 20:57

Зарубежное кино [DVD / HDDVD / BD / Remux] Повелитель стихий / The Last Airbender (М. Найт Шьямалан ) [2010 г., боевик, фэнтези, приключения, семейный, DVD-9] SKRiptus
0 | 0

0 | 1941

2

27.11.2010 10:43

Зарубежное кино [HDDVDRip / BDRip / WEB-DL / HDTV 1080/720р] Повелитель иллюзий / Lord of Illusions (Клайв Баркер) [1995 г., Ужасы, Триллер, HDTV 1080p] DVO (RUS, Виктория Бабанова, Александр Фечин) + Original (ENG) Ведьмочка
0 | 0

0 | 840

4

04.08.2014 21:45

Зарубежное кино [HDDVDRip / BDRip / WEB-DL / HDTV 1080/720р] Повелитель мух / Lord of the Flies (Питер Брук) [1963 г., триллер, драма, приключения, BDRip 1080p] MVO + DVO + Original + Sub makkol
0 | 0

0 | 458

3

25.05.2015 23:40

Зарубежное кино [HDDVDRip / BDRip / WEB-DL / HDTV 1080/720р] Повелитель Мух / Lord Of The Flies (Гарри Хук) [1990 г., триллер, драма, приключения, BDRip 1080p] MVO + Original + Subs (Eng) makkol
1 | 0

0 | 504

3

28.05.2015 10:39


Яндекс.Метрика powered by Sphinx


В Н И М А Н И Е
Сайт не распространяет и не хранит электронные версии произведений, а лишь бесплатно и без коммерческой выгоды (не требуя взамен платы,
SMS и т.д.) предоставляет доступ к создаваемому пользователями каталогу ссылок на торрент-файлы, которые содержат только списки хеш-сумм.
Убедительная просьба с жалобами обращаться напрямую к пользователю, разместившему торрент файл.

Вверх