Loading...
Error

Повелитель мух / Lord Of The Flies (Питер Брук) [1963 г., триллер, драма, приключения, DVDRip] DVO + Original

Статистика раздачи
Размер:  1,75 GB   |    Зарегистрирован:  1 год 6 месяцев   |    Скачан:  5 раз
Сидов:  1  |  0 KB/s  ]   Личеров:  0  |  0 KB/s  ]

* - сиды/пиры с внешних источников

   
 
Автор Сообщение

makkol Пол:Муж

26-Май-2015 23:16

Повелитель мух / Lord Of The Flies
«Зло неотъемлемо присутствует в человеческой душе, какой бы невинностью оно не прикрывалось...»


Год выпуска: 1963
Жанр: триллер, драма, приключения
Производство: Великобритания [Two Arts Ltd]
Режиссер: Питер Брук
В ролях: Джеймс Обри, Том Чэпин, Хью Эдвардс, Роджер Элвин, Том Геймен, Роджер Аллан, Дэвид Бранджис, Питер Дави, Кент Флетчер, Николас Хэммонд
Сюжет фильма:
«Повелитель мух» — это роман английского писателя Уильяма Голдинга, предполагавшего сделать пародию на «Коралловый остров», «Робинзона Крузо» и «Таинственный остров».
Английские школьники в результате авиакатастрофы оказываются на необитаемом острове, но они не остаются джентльменами, как их учили мамы и папы, а превращаются в первобытных дикарей. Дичая, они нисходят к истокам зла и вскоре голод начинает руководить детьми. Обезумевшая толпа подчиняется сильному, способному накормить и защитить. Доходит и до убийств. Ральфу, главному герою романа, представляющему демократию и справедливость, способному думать и понимать ситуацию, не остается ничего кроме как слиться с большинством. Факт того, что даже в такой обстановке найдется объект для высмеивания и игнорирования, показывает нам, что люди теряют только хорошие качества. Таким образом автор с легкостью передал главную идею романа (фильма) — человек способен к деградации и пойдет на все, чтобы выжить...

  • Мировая премьера: 13 августа 1963


Качество видео: DVDRip

Продолжительность: 01:30:46
Формат: MKV
Видео: MPEG-4 AVC, 720x544 (4:3), 23.976 fps, 2447 kbps
Аудио #1: русский, профессиональный двухголосый закадровый, AC3 (mono), 48 kHz, 128 kbps
Аудио #2: английский, оригинал, AC3 (mono), 48 kHz, 128 kbps

Код:

General
Complete name                    : F:\Мои торренты\Lord.Of.The.Flies.1963.DVDRip.mkv
Format                           : Matroska
File size                        : 1.75 GiB
Duration                         : 1h 30mn
Overall bit rate                 : 2 758 Kbps
Encoded date                     : UTC 2013-02-09 17:00:02
Writing application              : mkvmerge v3.3.0 ('Language') built on Mar 24 2010 14:59:24
Writing library                  : libebml v0.8.0 + libmatroska v0.9.0

Video
ID                               : 1
Format                           : AVC
Format/Info                      : Advanced Video Codec
Format profile                   : High@L4.0
Format settings, CABAC           : Yes
Format settings, ReFrames        : 4 frames
Muxing mode                      : Container profile=Unknown@4.0
Codec ID                         : V_MPEG4/ISO/AVC
Duration                         : 1h 30mn
Bit rate                         : 2 447 Kbps
Nominal bit rate                 : 2 500 Kbps
Width                            : 720 pixels
Height                           : 544 pixels
Display aspect ratio             : 4/3
Frame rate                       : 23.976 fps
Resolution                       : 24 bits
Colorimetry                      : 4:2:0
Scan type                        : Progressive
Bits/(Pixel*Frame)               : 0.261
Stream size                      : 1.55 GiB (89%)
Writing library                  : x264 core 92 r1510 33d382a
Encoding settings                : cabac=1 / ref=3 / deblock=1:0:0 / analyse=0x3:0x113 / me=hex / subme=7 / psy=1 / psy_rd=1.00:0.00 / mixed_ref=1 / me_range=16 / chroma_me=1 / trellis=1 / 8x8dct=1 / cqm=0 / deadzone=21,11 / fast_pskip=1 / chroma_qp_offset=-2 / threads=3 / sliced_threads=0 / nr=0 / decimate=1 / interlaced=0 / constrained_intra=0 / bframes=3 / b_pyramid=2 / b_adapt=1 / b_bias=0 / direct=3 / wpredb=1 / wpredp=2 / keyint=250 / keyint_min=25 / scenecut=40 / intra_refresh=0 / rc_lookahead=40 / rc=2pass / mbtree=1 / bitrate=2500 / ratetol=1.0 / qcomp=0.60 / qpmin=10 / qpmax=51 / qpstep=4 / cplxblur=20.0 / qblur=0.5 / ip_ratio=1.40 / aq=1:1.00

Audio #1
ID                               : 2
Format                           : AC-3
Format/Info                      : Audio Coding 3
Codec ID                         : A_AC3
Duration                         : 1h 30mn
Bit rate mode                    : Constant
Bit rate                         : 128 Kbps
Channel(s)                       : 1 channel
Channel positions                : C
Sampling rate                    : 48.0 KHz
Stream size                      : 83.1 MiB (5%)
Language                         : Russian

Audio #2
ID                               : 3
Format                           : AC-3
Format/Info                      : Audio Coding 3
Codec ID                         : A_AC3
Duration                         : 1h 30mn
Bit rate mode                    : Constant
Bit rate                         : 128 Kbps
Channel(s)                       : 1 channel
Channel positions                : C
Sampling rate                    : 48.0 KHz
Stream size                      : 83.1 MiB (5%)
Language                         : English

picpicpicpicpic
Для увеличения картинки щелкните мышкой по превью

Этот торрент недоступен для скачивания без регистрации, однако доступен по публичной magnet-ссылке (источники с публичных трекеров). Перед использованием ссылки прочтите, пожалуйста Пользовательское соглашение, а также как можно дольше оставайтесь на раздаче! Для того, чтобы скачать сам торрент-файл (который видит больше источников), а также для того, чтобы поблагодарить релизера, вам необходимо зарегистрироваться. Если регистрироваться лень - вы можете также попробовать скачать релиз по нашим партнерским ссылкам ниже.

[underverse.su].t54858.torrent
Трекер: Зарегистрирован   [ 26.05.2015 23:16 ]  

Статус: проверено (by Паукан at 27.05.2015 13:05)
Поблагодарили: пока никто не поблагодарил...
Тип торрента: публичный - доступные источники с открытых трекеров: 
Размер: 1,75 GB (занимает 0,4 DVDR, для записи нужно 1 болванка DVDR/RW)
 
 
Похожие темы
Форум Тема Автор Торрент Отв. Посл. сооб.
Зарубежное кино [DVDRip, Low-Res HDRip, и т.д.] Повелитель стихий / The Last Airbender (М. Найт Шьямалан) [2010 г., Боевик, Семейный, Фантастика, HD DVDRip] BartSimpson
0 | 0

0 | 859

1

03.11.2010 13:29

Зарубежное кино [DVDRip, Low-Res HDRip, и т.д.] Повелитель бури / The Hurt Locker (Кэтрин Бигилоу / Kathryn Bigelow) [2008 г., Боевик, драма, военный, HDRip] Dub Gaarochi
8 | 0

0 | 1087

9

06.05.2013 19:40

Зарубежное кино [DVDRip, Low-Res HDRip, и т.д.] Повелитель лавин / Prince Avalanche (Дэвид Гордон Грин) [2013 г., драма, комедия, HDRip] MVO (Ozz) + Original 90ytr90
0 | 0

0 | 974

27

08.11.2013 17:00

Зарубежное кино [DVDRip, Low-Res HDRip, и т.д.] Повелитель бури / Взаперти с Болью / The Hurt Locker (Кэтрин Бигилоу / Kathryn Bigelow) [2008 г., боевик, драма, военный, HDRip] MVO 90ytr90
4 | 0

0 | 354

8

12.02.2015 15:52

Зарубежное кино [DVDRip, Low-Res HDRip, и т.д.] Повелитель Мух / Lord Of The Flies (Гарри Хук) [1990 г., триллер, драма, приключения, DVDRip] MVO + Original makkol
28 | 0

0 | 647

12

27.05.2015 11:09

Зарубежное кино [DVD / HDDVD / BD / Remux] Повелитель бури / The Hurt Locker (Кэтрин Бигилоу) [2008 г.,боевик, триллер, драма, военный, DVD-9] Bratok
0 | 0

0 | 885

3

20.02.2010 20:57

Зарубежное кино [DVD / HDDVD / BD / Remux] Повелитель стихий / The Last Airbender (М. Найт Шьямалан ) [2010 г., боевик, фэнтези, приключения, семейный, DVD-9] SKRiptus
0 | 0

0 | 1941

2

27.11.2010 10:43

Зарубежное кино [HDDVDRip / BDRip / WEB-DL / HDTV 1080/720р] Повелитель иллюзий / Lord of Illusions (Клайв Баркер) [1995 г., Ужасы, Триллер, HDTV 1080p] DVO (RUS, Виктория Бабанова, Александр Фечин) + Original (ENG) Ведьмочка
0 | 0

0 | 840

4

04.08.2014 21:45

Зарубежное кино [HDDVDRip / BDRip / WEB-DL / HDTV 1080/720р] Повелитель мух / Lord of the Flies (Питер Брук) [1963 г., триллер, драма, приключения, BDRip 1080p] MVO + DVO + Original + Sub makkol
0 | 0

0 | 458

3

25.05.2015 23:40

Зарубежное кино [HDDVDRip / BDRip / WEB-DL / HDTV 1080/720р] Повелитель Мух / Lord Of The Flies (Гарри Хук) [1990 г., триллер, драма, приключения, BDRip 1080p] MVO + Original + Subs (Eng) makkol
1 | 0

0 | 504

3

28.05.2015 10:39


Яндекс.Метрика powered by Sphinx


В Н И М А Н И Е
Сайт не распространяет и не хранит электронные версии произведений, а лишь бесплатно и без коммерческой выгоды (не требуя взамен платы,
SMS и т.д.) предоставляет доступ к создаваемому пользователями каталогу ссылок на торрент-файлы, которые содержат только списки хеш-сумм.
Убедительная просьба с жалобами обращаться напрямую к пользователю, разместившему торрент файл.

Вверх