Loading...
Error

(Pop) Кар-мэн (Car Man) - Ультразвук (Сборник ремиксов) (2014) [FLAC (Image+.CUE), Lossless]

Статистика раздачи
Размер:  542 MB   |    Зарегистрирован:  3 года 6 месяцев   |    Скачан:  29 раз

Полного источника не было: 4 месяца 4 дня

Сидов:  0  |  0 KB/s  ]   Личеров:  0  |  0 KB/s  ]

* - сиды/пиры с внешних источников

   
 
Автор Сообщение

Бишеп Пол:Муж

25-Май-2015 14:38

Кар-мэн (Car Man) - Ультразвук (Сборник ремиксов)

Жанр: Pop
Год выпуска: 2015
Источник: CD
Производитель диска: ООО "Первое Музыкальное Издательство" UMGCD14-533
Аудиокодек: FLAC
Тип рипа: Image+.CUE
Битрейт аудио: lossless
Продолжительность: 01:05:29


Треклист:
01. Детка (feat. City Zen & DJ Jump)
02. This Is Car-Man (Это Кар-Мэн)
03. Чао, бамбино
04. Музыка (DJ Noiz)
05. Bad Russians (Плохие русские)
06. Дискотека
07. Париж (DJ Karas)
08. Лондон/Лондон, гуд бай
09. Оператор любовь
10. В Багдаде всё спокойно
11. Давай, танцуй
12. Чио-Чио-Сан
13. Сан-Франциско
14. Парень из Африки
15. Бомбей буги
16. Гагарин пати (feat. Jimmy G.)

Код:

Exact Audio Copy V1.0 beta 1 from 15. November 2010

EAC extraction logfile from 7. May 2015, 21:20

Car Man / Ультразвук

Used drive  : PLEXTOR DVDR   PX-760A   Adapter: 4  ID: 2

Read mode               : Secure
Utilize accurate stream : Yes
Defeat audio cache      : Yes
Make use of C2 pointers : No

Read offset correction                      : 30
Overread into Lead-In and Lead-Out          : No
Fill up missing offset samples with silence : Yes
Delete leading and trailing silent blocks   : No
Null samples used in CRC calculations       : Yes
Used interface                              : Native Win32 interface for Win NT & 2000

Used output format : Internal WAV Routines
Sample format      : 44.100 Hz; 16 Bit; Stereo

TOC of the extracted CD

     Track |   Start  |  Length  | Start sector | End sector
    ---------------------------------------------------------
        1  |  0:00.00 |  4:26.05 |         0    |    19954   
        2  |  4:26.05 |  3:43.74 |     19955    |    36753   
        3  |  8:10.04 |  3:46.11 |     36754    |    53714   
        4  | 11:56.15 |  3:50.57 |     53715    |    71021   
        5  | 15:46.72 |  3:55.05 |     71022    |    88651   
        6  | 19:42.02 |  4:05.34 |     88652    |   107060   
        7  | 23:47.36 |  3:26.41 |    107061    |   122551   
        8  | 27:14.02 |  4:51.17 |    122552    |   144393   
        9  | 32:05.19 |  4:28.09 |    144394    |   164502   
       10  | 36:33.28 |  3:54.24 |    164503    |   182076   
       11  | 40:27.52 |  3:32.00 |    182077    |   197976   
       12  | 43:59.52 |  4:00.00 |    197977    |   215976   
       13  | 47:59.52 |  3:56.23 |    215977    |   233699   
       14  | 51:56.00 |  4:24.69 |    233700    |   253568   
       15  | 56:20.69 |  4:07.28 |    253569    |   272121   
       16  | 60:28.22 |  5:00.34 |    272122    |   294655   

Range status and errors

Selected range

     Filename F:\FLAC (bruk67)\Car Man - Ультразвук - 2014 (FLAC)\Car Man - Ультразвук.wav

     Peak level 100.0 %
     Extraction speed 0.1 X
     Range quality 100.0 %
     Test CRC B1DAD76A
     Copy CRC B1DAD76A
     Copy OK

No errors occurred

 
AccurateRip summary
 
Track  1  not present in database
Track  2  not present in database
Track  3  not present in database
Track  4  not present in database
Track  5  not present in database
Track  6  not present in database
Track  7  not present in database
Track  8  not present in database
Track  9  not present in database
Track 10  not present in database
Track 11  not present in database
Track 12  not present in database
Track 13  not present in database
Track 14  not present in database
Track 15  not present in database
Track 16  not present in database
 
None of the tracks are present in the AccurateRip database

End of status report

==== Log checksum 030F62BA2DF6CB28D296BFE4A10BFDDBE8F3E47247FAA7BFD59FD3F8879A083F ====

Код:

REM GENRE Pop
REM DATE 2014
REM DISCID F20F5810
REM COMMENT "ExactAudioCopy v1.0b1"
PERFORMER "Car Man"
TITLE "Ультразвук"
FILE "Car Man - Ультразвук.flac" WAVE
  TRACK 01 AUDIO
    TITLE "Детка (feat. City Zen & DJ Jump)"
    PERFORMER "Car Man"
    FLAGS DCP
    INDEX 01 00:00:00
  TRACK 02 AUDIO
    TITLE "This Is Car-Man (Это Кар-Мэн)"
    PERFORMER "Car Man"
    FLAGS DCP
    INDEX 01 04:26:05
  TRACK 03 AUDIO
    TITLE "Чао, бамбино"
    PERFORMER "Car Man"
    FLAGS DCP
    INDEX 01 08:10:04
  TRACK 04 AUDIO
    TITLE "Музыка (DJ Noiz)"
    PERFORMER "Car Man"
    FLAGS DCP
    INDEX 01 11:56:15
  TRACK 05 AUDIO
    TITLE "Bad Russians (Плохие русские)"
    PERFORMER "Car Man"
    FLAGS DCP
    INDEX 01 15:46:72
  TRACK 06 AUDIO
    TITLE "Дискотека"
    PERFORMER "Car Man"
    FLAGS DCP
    INDEX 01 19:42:02
  TRACK 07 AUDIO
    TITLE "Париж (DJ Karas)"
    PERFORMER "Car Man"
    FLAGS DCP
    INDEX 01 23:47:36
  TRACK 08 AUDIO
    TITLE "Лондон/Лондон, гуд бай"
    PERFORMER "Car Man"
    FLAGS DCP
    INDEX 01 27:14:02
  TRACK 09 AUDIO
    TITLE "Оператор любовь"
    PERFORMER "Car Man"
    FLAGS DCP
    INDEX 01 32:05:19
  TRACK 10 AUDIO
    TITLE "В Багдаде всё спокойно"
    PERFORMER "Car Man"
    FLAGS DCP
    INDEX 01 36:33:28
  TRACK 11 AUDIO
    TITLE "Давай, танцуй"
    PERFORMER "Car Man"
    FLAGS DCP
    INDEX 01 40:27:52
  TRACK 12 AUDIO
    TITLE "Чио-Чио-Сан"
    PERFORMER "Car Man"
    FLAGS DCP
    INDEX 01 43:59:52
  TRACK 13 AUDIO
    TITLE "Сан-Франциско"
    PERFORMER "Car Man"
    FLAGS DCP
    INDEX 01 47:59:52
  TRACK 14 AUDIO
    TITLE "Парень из Африки"
    PERFORMER "Car Man"
    FLAGS DCP
    INDEX 01 51:56:00
  TRACK 15 AUDIO
    TITLE "Бомбей буги"
    PERFORMER "Car Man"
    FLAGS DCP
    INDEX 01 56:20:69
  TRACK 16 AUDIO
    TITLE "Гагарин пати (feat. Jimmy G.)"
    PERFORMER "Car Man"
    FLAGS DCP
    INDEX 01 60:28:22

Этот торрент недоступен для скачивания без регистрации, однако доступен по публичной magnet-ссылке (источники с публичных трекеров). Перед использованием ссылки прочтите, пожалуйста Пользовательское соглашение, а также как можно дольше оставайтесь на раздаче! Для того, чтобы скачать сам торрент-файл (который видит больше источников), а также для того, чтобы поблагодарить релизера, вам необходимо зарегистрироваться. Если регистрироваться лень - вы можете также попробовать скачать релиз по нашим партнерским ссылкам ниже. Кроме того, зарегистрированным пользователям не показывается всплывающая реклама при скачивании.

[underverse.su].t54833.torrent
Трекер: Зарегистрирован   [ 25.05.2015 14:38 ]  

Статус: проверено (by Бишеп at 25.05.2015 14:39)
Поблагодарили: 1 человек
Тип торрента: публичный - доступные источники с открытых трекеров: 
Размер: 542 MB (занимает 0,12 DVDR, для записи нужно 1 болванка DVDR/RW)
 
 
Похожие темы
Форум Тема Автор Торрент Отв. Посл. сооб.
Отечественная Поп Музыка (Lossless) (Pop) Кар-Мэн - Вокруг света (1994) [FLAC (Image+.CUE), Lossless] Бишеп
10 | 0

0 | 1365

18

02.05.2013 17:33

Отечественная Поп Музыка (Lossless) (Pop) Кар-Мэн - The Best Of (1993) [FLAC (Image+.CUE), Lossless] Бишеп
1 | 0

0 | 1593

21

20.06.2013 08:09


Яндекс.Метрика powered by Sphinx


В Н И М А Н И Е
Сайт не распространяет и не хранит электронные версии произведений, а лишь бесплатно и без коммерческой выгоды (не требуя взамен платы,
SMS и т.д.) предоставляет доступ к создаваемому пользователями каталогу ссылок на торрент-файлы, которые содержат только списки хеш-сумм.
Убедительная просьба с жалобами обращаться напрямую к пользователю, разместившему торрент файл.

Вверх