Loading...
Error

Приличные люди (Клим Поплавский) [2015 г., комедия, WEBRip] Original (RUS)

Статистика раздачи
Размер:  1,37 GB   |    Зарегистрирован:  1 год 6 месяцев   |    Скачан:  106 раз
Сидов:  1  |  0 KB/s  ]   Личеров:  0  |  0 KB/s  ]

* - сиды/пиры с внешних источников

   
 
Автор Сообщение

makkol Пол:Муж

25-Май-2015 11:36

Приличные люди
«Во все тяжкие»


Год выпуска: 2015
Жанр: комедия
Страна: Россия
Режиссер: Клим Поплавский
В ролях: Наталия Медведева, Сергей Шнуров, Евгений Сморигин, Григорий Цветков, Артём Башенин, Алексей Гришин, Игорь Хрипунов, Андрей Федорцов, Константин Мурзенко, Анна Уколова
Сюжет фильма:
Что делать, если в вашем доме поселился родственник, недавно освободившийся из тюрьмы? И сделал жизнь вашей семьи невыносимой. А вы с женой случайно его убили. И соседский мальчик видел, как вы пытались закопать труп на заднем дворе. А инспектор ДПС обратил внимание на вашего неразговорчивого родственника в машине. Не очень представляя себе жизнь за решеткой, вы, наверное, должны избавиться от трупа… и, видимо, от маленького свидетеля … и полицейскому вы тоже как-то не должны позволить рассказать, что у вас в машине не совсем живой человек и чужой ребенок…

  • Российская премьера: 30 апреля 2015


Качество видео: WEBRip

Продолжительность: 01:28:53
Формат: AVI
Видео: XviD, 720x272, 1808 kbps
Аудио: русский, AC3 2.0, 384 kbps

Код:

General
Complete name : F:\Download\Pr1l1chn1e.LUd1.avi
Format : AVI
Format/Info : Audio Video Interleave
File size : 1.37 GiB
Duration : 1h 28mn
Overall bit rate : 2 202 Kbps
Writing application : VirtualDubMod 1.5.10.2 (build 2540/release)
Writing library : VirtualDubMod build 2540/release

Video
ID : 0
Format : MPEG-4 Visual
Format profile : Advanced Simple@L5
Format settings, BVOP : 2
Format settings, QPel : No
Format settings, GMC : No warppoints
Format settings, Matrix : Default (MPEG)
Codec ID : XVID
Codec ID/Hint : XviD
Duration : 1h 28mn
Bit rate : 1 808 Kbps
Width : 720 pixels
Height : 272 pixels
Display aspect ratio : 2.647
Frame rate : 25.000 fps
Color space : YUV
Chroma subsampling : 4:2:0
Bit depth : 8 bits
Scan type : Progressive
Compression mode : Lossy
Bits/(Pixel*Frame) : 0.369
Stream size : 1.12 GiB (82%)
Writing library : XviD 1.2.1 (UTC 2008-12-04)

Audio
ID : 1
Format : AC-3
Format/Info : Audio Coding 3
Mode extension : CM (complete main)
Format settings, Endianness : Big
Codec ID : 2000
Duration : 1h 28mn
Bit rate mode : Constant
Bit rate : 384 Kbps
Channel(s) : 2 channels
Channel positions : Front: L R
Sampling rate : 48.0 KHz
Compression mode : Lossy
Stream size : 244 MiB (17%)
Alignment : Split accross interleaves
Interleave, duration : 40 ms (1.00 video frame)
Interleave, preload duratio : 500 ms
Сэмпл

picpicpicpicpic
Для увеличения картинки щелкните мышкой по превью

Этот торрент недоступен для скачивания без регистрации, однако доступен по публичной magnet-ссылке (источники с публичных трекеров). Перед использованием ссылки прочтите, пожалуйста Пользовательское соглашение, а также как можно дольше оставайтесь на раздаче! Для того, чтобы скачать сам торрент-файл (который видит больше источников), а также для того, чтобы поблагодарить релизера, вам необходимо зарегистрироваться. Если регистрироваться лень - вы можете также попробовать скачать релиз по нашим партнерским ссылкам ниже.

[underverse.su].t54830.torrent
Трекер: Зарегистрирован   [ 25.05.2015 11:36 ]  

Статус: T временная (by Ведьмочка at 25.05.2015 14:43)
Поблагодарили: 4 человека
Тип торрента: публичный - доступные источники с открытых трекеров: 
Размер: 1,37 GB (занимает 0,31 DVDR, для записи нужно 1 болванка DVDR/RW)
 
 
Похожие темы
Форум Тема Автор Торрент Отв. Посл. сооб.
T Наше кино [HDDVDRip / BDRip / WEB-DL / HDTV 1080/720р] Приличные люди (Клим Поплавский) [2015 г., комедия, WEB-DL 1080p] Original (RUS) makkol
18 | 1

1 | 960

64

02.06.2015 11:33



Последний раз редактировалось: makkol (06.06.2015 13:31), всего редактировалось 1 раз

DrBond Пол:Муж

03-Июн-2015 20:17

Отличная российская комедия. Шнур красавчик, жаль, что песню ещё не спел, например "Дорожную" :)))))
Сюжет режиссер отлично построил. Вроде и сказка, а с другой стороны, для нашей страны, почему бы и нет? Вполне реально.
В общем стоит смотреть однозначно!

val.s.g Пол:Муж

08-Июн-2015 05:42

В последнее время столько тупых комедий, а на этой комедии отдыхаешь. Шнур - красава.

val.s.g Пол:Муж

06-Авг-2015 16:33

Наворочалииии.... Но вечерком, да под пивко, да со Шнуром в компании...да очень даже ничего. :Yahoo!: :good:

Яндекс.Метрика powered by Sphinx


В Н И М А Н И Е
Сайт не распространяет и не хранит электронные версии произведений, а лишь бесплатно и без коммерческой выгоды (не требуя взамен платы,
SMS и т.д.) предоставляет доступ к создаваемому пользователями каталогу ссылок на торрент-файлы, которые содержат только списки хеш-сумм.
Убедительная просьба с жалобами обращаться напрямую к пользователю, разместившему торрент файл.

Вверх