Loading...
Error

Снайпер / American Sniper (Клинт Иствуд) [2014 г., боевик, драма, военный, биография, BDRip] Dub (Rus,Ukr) + Original + Sub (Rus,Ukr,Eng) HQ Underverse

Статистика раздачи
Размер:  2,18 GB   |    Зарегистрирован:  1 год 6 месяцев   |    Скачан:  15 раз
Сидов:  2  |  0 KB/s  ]   Личеров:  0  |  0 KB/s  ]

* - сиды/пиры с внешних источников

   
 
Автор Сообщение

HQ Underverse 

25-Май-2015 09:57

Снайпер / American Sniper


Год выпуска: 2014
Жанр: боевик, драма, военный, биография
Страна: США
Режиссер: Клинт Иствуд
В ролях: Брэдли Купер, Сиенна Миллер, Кайл Галлнер, Бен Рид, Элиз Робертсон, Люк Саншайн, Трой Винсент, Брэндон Сальгадо, Кейр О’Доннелл, Марне Паттерсон
Сюжет фильма:
Он морской пехотинец из штата Техас по имени Крис. Так сложилось, что судьба закинула его в Ирак. Там-то он и проявил себя: он побил своеобразный рекорд – убил самого большое число противников. С его «результатами» было сложно сравниться. Поэтому и назвали его иракцы дьяволом. Но кроме описания военных реалий, действий и операций, здесь приводятся воспоминания его жены – женщины, которой пришлось делить своего любимого с войной. Крис всё больше и больше привязывался не только к тем людям, с которыми ему пришлось делить скромное жильё, обед и трудности войны, но и к самой войне – к постоянной борьбе за жизнь…

  • Мировая премьера: 11 ноября 2014
  • Российская премьера: 5 марта 2015, «Каро-Премьер»

|
Качество видео: BDRip

Продолжительность: 02:12:39
Формат: avi
Видео: XviD, 720x304, 1889 kbps
Аудио #1: русский, дублированный [лицензия], AC3 5.1, 448 kbps
Аудио #2: украинский, дублированный, AC3 2.0, 192 kbps (отдельным файлом: здесь)
Аудио #3: английский, оригинал, AC3 5.1, 448 kbps (отдельным файлом: здесь)
Субтитры #1: внешние, SRT, украинский
Субтитры #2: внешние, SRT, украинский (FORCED)
Субтитры #3: внешние, SRT, русский
Субтитры #4: внешние, SRT, русский (FORCED)
Субтитры #5: внешние, SRT, английский

Код:

General
Complete name                    : Y:\Снайпер\American.Sniper.2014.BDRip.XviD.AC3.Rus.D.HQ.Underverse.avi
Format                           : AVI
Format/Info                      : Audio Video Interleave
Format profile                   : OpenDML
File size                        : 2.18 GiB
Duration                         : 2h 12mn
Overall bit rate                 : 2 349 Kbps
Writing application              : VirtualDubMod 1.5.10.3 | www.virtualdub-fr.org || (build 2550/release)
Writing library                  : VirtualDubMod build 2550/release

Video
ID                               : 0
Format                           : MPEG-4 Visual
Format profile                   : Streaming Video@L1
Format settings, BVOP            : Yes
Format settings, QPel            : No
Format settings, GMC             : No warppoints
Format settings, Matrix          : Custom
Codec ID                         : XVID
Codec ID/Hint                    : XviD
Duration                         : 2h 12mn
Bit rate                         : 1 889 Kbps
Width                            : 720 pixels
Height                           : 304 pixels
Display aspect ratio             : 2.35
Frame rate                       : 23.976 fps
Resolution                       : 24 bits
Colorimetry                      : 4:2:0
Scan type                        : Progressive
Bits/(Pixel*Frame)               : 0.360
Stream size                      : 1.75 GiB (80%)
Writing library                  : XviD 66

Audio
ID                               : 1
Format                           : AC-3
Format/Info                      : Audio Coding 3
Codec ID                         : 2000
Duration                         : 2h 12mn
Bit rate mode                    : Constant
Bit rate                         : 448 Kbps
Channel(s)                       : 6 channels
Channel positions                : Front: L C R, Surround: L R, LFE
Sampling rate                    : 48.0 KHz
Stream size                      : 425 MiB (19%)
Alignment                        : Split accross interleaves
Interleave, duration             : 42 ms (1.00 video frame)
Interleave, preload duration     : 500 ms

General
Complete name                    : Y:\Снайпер\American.Sniper.2014.BDRip.XviD.AC3.Rus.D.HQ.Underverse.UKR.ac3
Format                           : AC-3
Format/Info                      : Audio Coding 3
File size                        : 182 MiB
Duration                         : 2h 12mn
Overall bit rate                 : 192 Kbps

Audio
Format                           : AC-3
Format/Info                      : Audio Coding 3
Duration                         : 2h 12mn
Bit rate mode                    : Constant
Bit rate                         : 192 Kbps
Channel(s)                       : 2 channels
Channel positions                : L R
Sampling rate                    : 48.0 KHz
Stream size                      : 182 MiB (100%)

General
Complete name                    : Y:\Снайпер\American.Sniper.2014.BDRip.XviD.AC3.Rus.D.HQ.Underverse.ENG.ac3
Format                           : AC-3
Format/Info                      : Audio Coding 3
File size                        : 425 MiB
Duration                         : 2h 12mn
Overall bit rate                 : 448 Kbps

Audio
Format                           : AC-3
Format/Info                      : Audio Coding 3
Duration                         : 2h 12mn
Bit rate mode                    : Constant
Bit rate                         : 448 Kbps
Channel(s)                       : 6 channels
Channel positions                : Front: L C R, Surround: L R, LFE
Sampling rate                    : 48.0 KHz
Stream size                      : 425 MiB (100%)

Релиз группы:

picpicpic
Для увеличения картинки щелкните мышкой по превью

Этот торрент недоступен для скачивания без регистрации, однако доступен по публичной magnet-ссылке (источники с публичных трекеров). Перед использованием ссылки прочтите, пожалуйста Пользовательское соглашение, а также как можно дольше оставайтесь на раздаче! Для того, чтобы скачать сам торрент-файл (который видит больше источников), а также для того, чтобы поблагодарить релизера, вам необходимо зарегистрироваться. Если регистрироваться лень - вы можете также попробовать скачать релиз по нашим партнерским ссылкам ниже.

[underverse.su].t54827.torrent
Трекер: Зарегистрирован   [ 25.05.2015 09:57 ]  

Статус: проверено (by Паукан at 27.05.2015 11:37)
Поблагодарили: 3 человека
Тип торрента: публичный - доступные источники с открытых трекеров: 
Размер: 2,18 GB (занимает 1/2 DVDR, для записи нужно 1 болванка DVDR/RW)
 
 
Похожие темы
Форум Тема Автор Торрент Отв. Посл. сооб.
T Зарубежное кино [DVDRip, Low-Res HDRip, и т.д.] Снайпер / American Sniper (Клинт Иствуд) [2014 г., боевик, военный, биография, драма, WEB-DLRip] Dub [чистый звук] Паукан
2 | 0

0 | 1124

62

24.03.2015 14:49

T Зарубежное кино [DVDRip, Low-Res HDRip, и т.д.] Снайпер / American Sniper (Клинт Иствуд / Clint Eastwood) [2014 г., боевик, драма, военный, биография, HDRip] Dub (чистый звук) 90ytr90
17 | 0

0 | 460

25

05.05.2015 10:46

Зарубежное кино [DVDRip, Low-Res HDRip, и т.д.] Снайпер / American Sniper (Клинт Иствуд / Clint Eastwood) [2014 г., боевик, драма, военный, биография, HDRip] MVO (Gears Media) 90ytr90
1 | 0

0 | 365

13

05.05.2015 10:54

Зарубежное кино [DVDRip, Low-Res HDRip, и т.д.] Снайпер / American Sniper (Клинт Иствуд / Clint Eastwood) [2014 г., боевик, драма, военный, биография, HDRip] MVO (Gears Media) 90ytr90
1 | 0

0 | 406

5

05.05.2015 11:00

T Зарубежное кино [DVDRip, Low-Res HDRip, и т.д.] Снайпер / American Sniper (Клинт Иствуд) [2014 г., боевик, драма, военный, биография, HDRip] Dub [iTunes] Паукан
44 | 0

0 | 602

21

08.05.2015 10:44

T Зарубежное кино [DVDRip, Low-Res HDRip, и т.д.] Снайпер / American Sniper (Клинт Иствуд) [2014 г., боевик, драма, военный, биография, HDRip] Dub [iTunes] Паукан
6 | 0

0 | 728

21

08.05.2015 10:47

T Зарубежное кино [HDDVDRip / BDRip / WEB-DL / HDTV 1080/720р] Снайпер / American Sniper (Клинт Иствуд) [2014 г., Боевик, драма, военный, биография, BDRip 1080p] Dub (чистый звук) + Original romeoexpert
0 | 0

0 | 762

20

01.05.2015 10:57

Зарубежное кино [HDDVDRip / BDRip / WEB-DL / HDTV 1080/720р] Снайпер / American Sniper (Клинт Иствуд / Clint Eastwood) [2014 г., боевик, драма, военный, биография, BDRip 1080p] AVO (Вячеслав Котов) + Original (Eng) + Sub (Eng) 90ytr90
7 | 0

0 | 518

17

05.05.2015 11:11

T Зарубежное кино [HDDVDRip / BDRip / WEB-DL / HDTV 1080/720р] Снайпер / American Sniper (Клинт Иствуд / Clint Eastwood) [2014 г., боевик, драма, военный, биография, BDRip 720p] Dub (чистый звук) + Original (Eng) + Sub (Rus, Eng) 90ytr90
3 | 0

0 | 545

16

05.05.2015 11:17

T Зарубежное кино [HDDVDRip / BDRip / WEB-DL / HDTV 1080/720р] Снайпер / American Sniper (Клинт Иствуд) [2014 г., боевик, драма, военный, биография, BDRip 720p] Dub [iTunes] + Original + Sub (Eng) Паукан
4 | 0

0 | 947

43

08.05.2015 10:51


Яндекс.Метрика powered by Sphinx


В Н И М А Н И Е
Сайт не распространяет и не хранит электронные версии произведений, а лишь бесплатно и без коммерческой выгоды (не требуя взамен платы,
SMS и т.д.) предоставляет доступ к создаваемому пользователями каталогу ссылок на торрент-файлы, которые содержат только списки хеш-сумм.
Убедительная просьба с жалобами обращаться напрямую к пользователю, разместившему торрент файл.

Вверх