Loading...
Error

Поклонник / The Boy Next Door (Роб Коэн) [2015 г., Триллер, HDRip] Dub (RUS)

Статистика раздачи
Размер:  1,49 GB   |    Зарегистрирован:  1 год 6 месяцев   |    Скачан:  21 раз

Полного источника не было: 3 дня

Сидов:  0  |  0 KB/s  ]   Личеров:  0  |  0 KB/s  ]

* - сиды/пиры с внешних источников

   
 
Автор Сообщение

Ведьмочка Пол:Жен

23-Май-2015 21:26

Поклонник / The Boy Next Door
«A moment she couldn't resist, an obsession he can't control»


Страна: США
Год выпуска: 2015
Жанр: Триллер
Продолжительность: 01:30:41
Режиссёр: Роб Коэн
В ролях: Дженнифер Лопез, Райан Гузман, Йен Нельсон, Джон Корбетт, Кристин Ченоуэт, Лекси Аткинс, Хилл Харпер, Джек Уоллес, Адам Хикс, Франсуа Чау
Сюжет фильма:
Фильм рассказывает об учительнице литературы Клэр Петерсон. Клэр знает о том, что муж изменяет ей, но тянет с разводом.

Однажды, в дом по соседству въезжает харизматичный 19-летний красавчик Ной, который начинает оказывать Клэр повышенное внимание. Поддавшись слабости, Клэр проводит с ним ночь. Но она и не подозревала, что в скором времени влечение Ноя к ней перерастет в опасную одержимость…


Озвучивание:
  • Дублированный, Русский [Лицензия]

Качество видео: HDRip
Формат: AVI

Видео: XviD, 720x304 (2.35:1), 23.976, ~1890 Кбит/сек
Аудио: AC-3, 448 Кбит/сек, 6 Каналов, 48.0 КГц



General
Complete name : \Poklonnik.2015.D.HDRip.avi
Format : AVI
Format/Info : Audio Video Interleave
File size : 1.49 GiB
Duration : 1h 30mn
Overall bit rate : 2 347 Kbps
Writing application : VirtualDubMod 1.5.10.2 (build 2540/release)
Writing library : VirtualDubMod build 2540/release

Video
ID : 0
Format : MPEG-4 Visual
Format profile : Advanced Simple@L5
Format settings, BVOP : 1
Format settings, QPel : No
Format settings, GMC : No warppoints
Format settings, Matrix : Custom
Codec ID : XVID
Codec ID/Hint : XviD
Duration : 1h 30mn
Bit rate : 1 890 Kbps
Width : 720 pixels
Height : 304 pixels
Display aspect ratio : 2.35:1
Frame rate : 23.976 fps
Color space : YUV
Chroma subsampling : 4:2:0
Bit depth : 8 bits
Scan type : Progressive
Compression mode : Lossy
Bits/(Pixel*Frame) : 0.360
Stream size : 1.20 GiB (81%)
Writing library : XviD 73

Audio
ID : 1
Format : AC-3
Format/Info : Audio Coding 3
Mode extension : CM (complete main)
Format settings, Endianness : Big
Codec ID : 2000
Duration : 1h 30mn
Bit rate mode : Constant
Bit rate : 448 Kbps
Channel(s) : 6 channels
Channel positions : Front: L C R, Side: L R, LFE
Sampling rate : 48.0 KHz
Bit depth : 16 bits
Compression mode : Lossy
Stream size : 290 MiB (19%)
Alignment : Split accross interleaves
Interleave, duration : 42 ms (1.00 video frame)
Interleave, preload duratio : 500 ms


picpicpicpicpic
Для увеличения картинки щелкните мышкой по превью



Этот торрент недоступен для скачивания без регистрации, однако доступен по публичной magnet-ссылке (источники с публичных трекеров). Перед использованием ссылки прочтите, пожалуйста Пользовательское соглашение, а также как можно дольше оставайтесь на раздаче! Для того, чтобы скачать сам торрент-файл (который видит больше источников), а также для того, чтобы поблагодарить релизера, вам необходимо зарегистрироваться. Если регистрироваться лень - вы можете также попробовать скачать релиз по нашим партнерским ссылкам ниже.

[underverse.su].t54812.torrent
Трекер: Зарегистрирован   [ 23.05.2015 21:26 ]  

Статус: проверено (by Ведьмочка at 23.05.2015 23:35)
Поблагодарили: 1 человек
Тип торрента: публичный - доступные источники с открытых трекеров: 
Размер: 1,49 GB (занимает 0,34 DVDR, для записи нужно 1 болванка DVDR/RW)
 
 
Похожие темы
Форум Тема Автор Торрент Отв. Посл. сооб.
T Зарубежное кино [DVDRip, Low-Res HDRip, и т.д.] Поклонник / The Boy Next Door (Роб Коэн) [2015 г., триллер, WEB-DLRip] DVO + Original (Eng) + hardsub 90ytr90
0 | 0

0 | 582

32

11.02.2015 04:38

T Зарубежное кино [DVDRip, Low-Res HDRip, и т.д.] Поклонник / The Boy Next Door (Роб Коэн) [2015 г., триллер, WEB-DLRip] Dub [чистый звук] Паукан
1 | 0

0 | 546

29

31.03.2015 11:55

Зарубежное кино [DVDRip, Low-Res HDRip, и т.д.] Поклонник / The Boy Next Door (Роб Коэн) [2015 г., Триллер, HDRip-AVC] Dub (RUS) + Original (ENG) Ведьмочка
2 | 0

2 | 578

12

10.06.2015 21:49

Зарубежное кино [DVDRip, Low-Res HDRip, и т.д.] Поклонник / Fan (Маниш Шарма / Maneesh Sharma) [2016 г., боевик, триллер, драма, HDRip] MVO (ICG) + Original (Hin) + Sub (Rus) 90ytr90
21 | 1

0 | 404

2

21.07.2016 17:43

Зарубежное кино [HDDVDRip / BDRip / WEB-DL / HDTV 1080/720р] Поклонник / The Boy Next Door (Роб Коэн) [2015 г., Триллер, BDRip 720p] Dub (RUS) + Subs (ENG) Ведьмочка
4 | 0

0 | 547

7

23.05.2015 21:59

Зарубежное кино [HDDVDRip / BDRip / WEB-DL / HDTV 1080/720р] Поклонник / The Boy Next Door (Роб Коэн) [2015 г., Триллер, BDRip 1080p] Dub (RUS) + Subs (ENG) Ведьмочка
2 | 3

0 | 666

14

23.05.2015 22:05

Зарубежное кино [HDDVDRip / BDRip / WEB-DL / HDTV 1080/720р] Поклонник / Fan (Маниш Шарма / Maneesh Sharma) [2016 г., боевик, триллер, драма, BDRip 1080p] MVO (ICG) + Original (Hin) + Sub (Rus) 90ytr90
6 | 0

0 | 450

0

21.07.2016 17:50


Яндекс.Метрика powered by Sphinx


В Н И М А Н И Е
Сайт не распространяет и не хранит электронные версии произведений, а лишь бесплатно и без коммерческой выгоды (не требуя взамен платы,
SMS и т.д.) предоставляет доступ к создаваемому пользователями каталогу ссылок на торрент-файлы, которые содержат только списки хеш-сумм.
Убедительная просьба с жалобами обращаться напрямую к пользователю, разместившему торрент файл.

Вверх