Loading...
Error

Поклонник / The Boy Next Door (Роб Коэн) [2015 г., Триллер, HDRip-AVC] Dub (RUS) + Original (ENG)

Статистика раздачи
Размер:  1,68 GB   |    Зарегистрирован:  1 год 6 месяцев   |    Скачан:  12 раз

Полного источника не было: 4 месяца 10 дней

Сидов:  0  |  0 KB/s  ]   Личеров:  0  |  0 KB/s  ]

* - сиды/пиры с внешних источников

   
 
Автор Сообщение

Ведьмочка Пол:Жен

23-Май-2015 21:19

Поклонник / The Boy Next Door
«A moment she couldn't resist, an obsession he can't control»


Страна: США
Год выпуска: 2015
Жанр: Триллер
Продолжительность: 01:30:41
Режиссёр: Роб Коэн
В ролях: Дженнифер Лопез, Райан Гузман, Йен Нельсон, Джон Корбетт, Кристин Ченоуэт, Лекси Аткинс, Хилл Харпер, Джек Уоллес, Адам Хикс, Франсуа Чау
Сюжет фильма:
Фильм рассказывает об учительнице литературы Клэр Петерсон. Клэр знает о том, что муж изменяет ей, но тянет с разводом.

Однажды, в дом по соседству въезжает харизматичный 19-летний красавчик Ной, который начинает оказывать Клэр повышенное внимание. Поддавшись слабости, Клэр проводит с ним ночь. Но она и не подозревала, что в скором времени влечение Ноя к ней перерастет в опасную одержимость…


Озвучивание:
  • Дублированный, Русский [Лицензия]
  • Оригинал, Английский

Качество видео: HDRip-AVC
Формат: MKV

Видео: AVC, 1024x426 (2.40:1), 23.976, ~1756 Кбит/сек
Аудио #1: AC-3, 448 Кбит/сек, 6 Каналов, 48.0 КГц
Аудио #2: AC-3, 448 Кбит/сек, 6 Каналов, 48.0 КГц

Rip by:



General
Unique ID : 209331143244619318557296989202467008312 (0x9D7BB6326A15C9FFB464B34215802F38)
Complete name : \Boy.next.door.2015.D.HDRip.AVC.ExKinoRay.mkv
Format : Matroska
Format version : Version 4 / Version 2
File size : 1.68 GiB
Duration : 1h 30mn
Overall bit rate : 2 652 Kbps
Movie name : The Boy Next Door 2015 from ExKinoRay
Encoded date : UTC 2015-05-23 16:54:37
Writing application : mkvmerge v6.6.0 ('The Edge Of The In Between') built on Dec 1 2013 17:55:00
Writing library : libebml v1.3.0 + libmatroska v1.4.1

Video
ID : 1
Format : AVC
Format/Info : Advanced Video Codec
Format profile : High@L4.1
Format settings, CABAC : Yes
Format settings, ReFrames : 10 frames
Codec ID : V_MPEG4/ISO/AVC
Duration : 1h 30mn
Bit rate : 1 756 Kbps
Width : 1 024 pixels
Height : 426 pixels
Display aspect ratio : 2.40:1
Frame rate mode : Constant
Frame rate : 23.976 fps
Color space : YUV
Chroma subsampling : 4:2:0
Bit depth : 8 bits
Scan type : Progressive
Bits/(Pixel*Frame) : 0.168
Stream size : 1.08 GiB (64%)
Title : Enigma
Writing library : x264 core 133 r2334 a3ac64b
Encoding settings : cabac=1 / ref=10 / deblock=1:-2:-2 / analyse=0x3:0x113 / me=umh / subme=10 / psy=1 / psy_rd=1.05:0.15 / mixed_ref=1 / me_range=32 / chroma_me=1 / trellis=2 / 8x8dct=1 / cqm=0 / deadzone=21,11 / fast_pskip=0 / chroma_qp_offset=-3 / threads=12 / lookahead_threads=2 / sliced_threads=0 / nr=0 / decimate=0 / interlaced=0 / bluray_compat=0 / constrained_intra=0 / bframes=9 / b_pyramid=2 / b_adapt=2 / b_bias=0 / direct=3 / weightb=1 / open_gop=0 / weightp=2 / keyint=240 / keyint_min=23 / scenecut=40 / intra_refresh=0 / rc=2pass / mbtree=0 / bitrate=1756 / ratetol=1.0 / qcomp=0.60 / qpmin=0 / qpmax=51 / qpstep=4 / cplxblur=20.0 / qblur=0.5 / ip_ratio=1.40 / pb_ratio=1.30 / aq=1:1.00
Default : Yes
Forced : No
Color primaries : BT.709
Transfer characteristics : BT.709
Matrix coefficients : BT.709
Color range : Limited

Audio #1
ID : 2
Format : AC-3
Format/Info : Audio Coding 3
Mode extension : CM (complete main)
Format settings, Endianness : Big
Codec ID : A_AC3
Duration : 1h 30mn
Bit rate mode : Constant
Bit rate : 448 Kbps
Channel(s) : 6 channels
Channel positions : Front: L C R, Side: L R, LFE
Sampling rate : 48.0 KHz
Bit depth : 16 bits
Compression mode : Lossy
Stream size : 291 MiB (17%)
Title : DUB (CEE)
Language : Russian
Default : Yes
Forced : No

Audio #2
ID : 3
Format : AC-3
Format/Info : Audio Coding 3
Mode extension : CM (complete main)
Format settings, Endianness : Big
Codec ID : A_AC3
Duration : 1h 30mn
Bit rate mode : Constant
Bit rate : 448 Kbps
Channel(s) : 6 channels
Channel positions : Front: L C R, Side: L R, LFE
Sampling rate : 48.0 KHz
Bit depth : 16 bits
Compression mode : Lossy
Stream size : 291 MiB (17%)
Language : English
Default : No
Forced : No

Menu
00:00:00.000 : en:00:00:00.000
00:04:29.769 : en:00:04:29.769
00:10:39.931 : en:00:10:39.931
00:15:32.890 : en:00:15:32.890
00:20:31.021 : en:00:20:31.021
00:24:41.730 : en:00:24:41.730
00:26:53.570 : en:00:26:53.570
00:30:49.681 : en:00:30:49.681
00:35:51.441 : en:00:35:51.441
00:40:20.627 : en:00:40:20.627
00:45:47.370 : en:00:45:47.370
00:49:24.795 : en:00:49:24.795
00:53:28.956 : en:00:53:28.956
00:56:43.650 : en:00:56:43.650
01:00:45.851 : en:01:00:45.851
01:03:44.988 : en:01:03:44.988
01:09:31.042 : en:01:09:31.042
01:14:06.609 : en:01:14:06.609
01:19:50.953 : en:01:19:50.953
01:24:33.527 : en:01:24:33.527


picpicpicpicpic
Для увеличения картинки щелкните мышкой по превью



Этот торрент недоступен для скачивания без регистрации, однако доступен по публичной magnet-ссылке (источники с публичных трекеров). Перед использованием ссылки прочтите, пожалуйста Пользовательское соглашение, а также как можно дольше оставайтесь на раздаче! Для того, чтобы скачать сам торрент-файл (который видит больше источников), а также для того, чтобы поблагодарить релизера, вам необходимо зарегистрироваться. Если регистрироваться лень - вы можете также попробовать скачать релиз по нашим партнерским ссылкам ниже.

[underverse.su].t54811.torrent
Трекер: Зарегистрирован   [ 23.05.2015 21:19 ]  

Статус: проверено (by Ведьмочка at 23.05.2015 21:19)
Поблагодарили: пока никто не поблагодарил...
Тип торрента: публичный - доступные источники с открытых трекеров: 
Размер: 1,68 GB (занимает 0,38 DVDR, для записи нужно 1 болванка DVDR/RW)
 
 
Похожие темы
Форум Тема Автор Торрент Отв. Посл. сооб.
T Зарубежное кино [DVDRip, Low-Res HDRip, и т.д.] Поклонник / The Boy Next Door (Роб Коэн) [2015 г., триллер, WEB-DLRip] DVO + Original (Eng) + hardsub 90ytr90
0 | 0

0 | 582

32

11.02.2015 04:38

T Зарубежное кино [DVDRip, Low-Res HDRip, и т.д.] Поклонник / The Boy Next Door (Роб Коэн) [2015 г., триллер, WEB-DLRip] Dub [чистый звук] Паукан
1 | 0

0 | 546

29

31.03.2015 11:55

Зарубежное кино [DVDRip, Low-Res HDRip, и т.д.] Поклонник / The Boy Next Door (Роб Коэн) [2015 г., Триллер, HDRip] Dub (RUS) Ведьмочка
31 | 0

0 | 675

21

23.05.2015 21:26

Зарубежное кино [DVDRip, Low-Res HDRip, и т.д.] Поклонник / Fan (Маниш Шарма / Maneesh Sharma) [2016 г., боевик, триллер, драма, HDRip] MVO (ICG) + Original (Hin) + Sub (Rus) 90ytr90
21 | 1

0 | 404

2

21.07.2016 17:43

Зарубежное кино [HDDVDRip / BDRip / WEB-DL / HDTV 1080/720р] Поклонник / The Boy Next Door (Роб Коэн) [2015 г., Триллер, BDRip 720p] Dub (RUS) + Subs (ENG) Ведьмочка
4 | 0

0 | 547

7

23.05.2015 21:59

Зарубежное кино [HDDVDRip / BDRip / WEB-DL / HDTV 1080/720р] Поклонник / The Boy Next Door (Роб Коэн) [2015 г., Триллер, BDRip 1080p] Dub (RUS) + Subs (ENG) Ведьмочка
2 | 3

0 | 665

14

23.05.2015 22:05

Зарубежное кино [HDDVDRip / BDRip / WEB-DL / HDTV 1080/720р] Поклонник / Fan (Маниш Шарма / Maneesh Sharma) [2016 г., боевик, триллер, драма, BDRip 1080p] MVO (ICG) + Original (Hin) + Sub (Rus) 90ytr90
6 | 0

0 | 450

0

21.07.2016 17:50

DrBond Пол:Муж

04-Июн-2015 19:06

Хороший фильм, стоит посмотреть. Смотрится на одном дыхании. К тому же Дженнифер Лопез великолепно сыграла. Поклонники будут в восторге, увидев её неглиже:)

val.s.g Пол:Муж

10-Июн-2015 21:49

Джей Ло превосходна. Да и фильм заставляет не быть равнодушным. Спасибо. :good:

Яндекс.Метрика powered by Sphinx


В Н И М А Н И Е
Сайт не распространяет и не хранит электронные версии произведений, а лишь бесплатно и без коммерческой выгоды (не требуя взамен платы,
SMS и т.д.) предоставляет доступ к создаваемому пользователями каталогу ссылок на торрент-файлы, которые содержат только списки хеш-сумм.
Убедительная просьба с жалобами обращаться напрямую к пользователю, разместившему торрент файл.

Вверх