Loading...
Error

Поделись счастьем своим / Серии: 1-4 из 4 (Оксана Байрак) [2014 г., Мелодрама, SATRip]

Статистика раздачи
Размер:  2,34 GB   |    Зарегистрирован:  1 год 6 месяцев   |    Скачан:  20 раз

Полного источника не было: 2 месяца 18 дней

Сидов:  0  |  0 KB/s  ]   Личеров:  0  |  0 KB/s  ]

* - сиды/пиры с внешних источников

   
 
Автор Сообщение

Ведьмочка Пол:Жен

23-Май-2015 20:37

Поделись счастьем своим


Страна: Украина
Год выпуска: 2014
Жанр: Мелодрама
Продолжительность: ~00:50:00 (каждая серия)
Режиссёр: Оксана Байрак
В ролях: Анна Сагайдачная, Екатерина Решетникова, Павел Баршак, Илья Любимов, Максим Дрозд, Регина Мянник, Елена Радевич, Елена Ященко, Любава Грешнова, Евгения Гладий
Сюжет фильма:
В основе фильма лежит актуальная тема — суррогатное материнство. По сценарию, у главных героинь очень сложная судьба, они рано потеряли мать, которая трагически погибла от рук убийцы. Мелодрама с элементами детектива и лирической комедии расскажет о любви, предательстве, доброте и радости материнства.

Качество видео: SATRip
Формат: AVI

Видео: XviD, 720x400 (16:9), 25.000 fps, ~1400 Кбит/сек
Аудио: AC-3, 192 Кбит/сек, 2 Канала, 48.0 КГц

Rip by:



General
Complete name : \Podelis.shastem.svoim.2015.SATRip.Files-x\04.Podelis.shastem.svoim.2015.SATRip.Files-x.avi
Format : AVI
Format/Info : Audio Video Interleave
File size : 600 MiB
Duration : 52mn 23s
Overall bit rate : 1 602 Kbps
Writing application : VirtualDubMod 1.5.10.3 | www.virtualdub-fr.org || (build 2550/release)
Writing library : VirtualDubMod build 2550/release

Video
ID : 0
Format : MPEG-4 Visual
Format profile : Advanced Simple@L5
Format settings, BVOP : 1
Format settings, QPel : No
Format settings, GMC : No warppoints
Format settings, Matrix : Custom
Codec ID : XVID
Codec ID/Hint : XviD
Duration : 52mn 23s
Bit rate : 1 400 Kbps
Width : 720 pixels
Height : 400 pixels
Display aspect ratio : 16:9
Frame rate : 25.000 fps
Color space : YUV
Chroma subsampling : 4:2:0
Bit depth : 8 bits
Scan type : Progressive
Compression mode : Lossy
Bits/(Pixel*Frame) : 0.194
Stream size : 525 MiB (87%)
Writing library : XviD 73

Audio
ID : 1
Format : AC-3
Format/Info : Audio Coding 3
Mode extension : CM (complete main)
Format settings, Endianness : Big
Codec ID : 2000
Duration : 52mn 23s
Bit rate mode : Constant
Bit rate : 192 Kbps
Channel(s) : 2 channels
Channel positions : Front: L R
Sampling rate : 48.0 KHz
Bit depth : 16 bits
Compression mode : Lossy
Stream size : 71.9 MiB (12%)
Alignment : Split accross interleaves
Interleave, duration : 40 ms (1.00 video frame)
Interleave, preload duratio : 500 ms


picpicpicpicpic
Для увеличения картинки щелкните мышкой по превью



Этот торрент недоступен для скачивания без регистрации, однако доступен по публичной magnet-ссылке (источники с публичных трекеров). Перед использованием ссылки прочтите, пожалуйста Пользовательское соглашение, а также как можно дольше оставайтесь на раздаче! Для того, чтобы скачать сам торрент-файл (который видит больше источников), а также для того, чтобы поблагодарить релизера, вам необходимо зарегистрироваться. Если регистрироваться лень - вы можете также попробовать скачать релиз по нашим партнерским ссылкам ниже.

[underverse.su].t54807.torrent
Трекер: Зарегистрирован   [ 23.05.2015 20:37 ]  

Статус: проверено (by Ведьмочка at 23.05.2015 21:07)
Поблагодарили: 4 человека
Тип торрента: публичный - доступные источники с открытых трекеров: 
Размер: 2,34 GB (занимает 0,54 DVDR, для записи нужно 1 болванка DVDR/RW)
 
 

Яндекс.Метрика powered by Sphinx


В Н И М А Н И Е
Сайт не распространяет и не хранит электронные версии произведений, а лишь бесплатно и без коммерческой выгоды (не требуя взамен платы,
SMS и т.д.) предоставляет доступ к создаваемому пользователями каталогу ссылок на торрент-файлы, которые содержат только списки хеш-сумм.
Убедительная просьба с жалобами обращаться напрямую к пользователю, разместившему торрент файл.

Вверх