Loading...
Error

Бесконечность / Infini (Шейн Эббесс) [2015 г., Фантастика, Триллер, Драма, WEB-DLRip] DVO (RUS)

Статистика раздачи
Размер:  1,45 GB   |    Зарегистрирован:  1 год 6 месяцев   |    Скачан:  119 раз

Полного источника не было: 1 месяц 10 дней

Сидов:  0  |  0 KB/s  ]   Личеров:  0  |  0 KB/s  ]

* - сиды/пиры с внешних источников

   
 
Автор Сообщение

Ведьмочка Пол:Жен

23-Май-2015 19:44

Бесконечность / Infini


Страна: Австралия
Год выпуска: 2015
Жанр: Фантастика, Триллер, Драма
Продолжительность: 01:50:42
Режиссёр: Шейн Эббесс
В ролях: Дэниэл МакФерсон, Грэйс Хуанг, Люк Хемсворт, Брен Фостер, Люк Форд, Дуэйн Стивенсон, Луиса Миньоне, Тесс Хобрич, Гарри Павлидис, Кевин Коуплэнд
Сюжет фильма:
Элитный спасательный отряд переброшен на удаленный горнодобывающий комплекс, чтобы спасти Уита Кармайкла, единственного выжившего после биологической катастрофы.

Озвучивание:
  • Любительский, Двухголосный, Русский [R.A.I.M. & NASTR]

Качество видео: WEB-DLRip
Формат: AVI

Видео: XviD, 720x304 (2.35:1), 23.976, ~1671 Кбит/сек
Аудио: AC-3, 192 Кбит/сек, 2 Канала, 48.0 КГц



General
Complete name : \Infini.2015.L2.WEB-DLRip.avi
Format : AVI
Format/Info : Audio Video Interleave
File size : 1.45 GiB
Duration : 1h 50mn
Overall bit rate : 1 873 Kbps
Writing application : VirtualDubMod 1.5.10.3 | www.virtualdub-fr.org || (build 2550/release)
Writing library : VirtualDubMod build 2550/release

Video
ID : 0
Format : MPEG-4 Visual
Format profile : Advanced Simple@L5
Format settings, BVOP : 2
Format settings, QPel : No
Format settings, GMC : No warppoints
Format settings, Matrix : Default (MPEG)
Muxing mode : Packed bitstream
Codec ID : XVID
Codec ID/Hint : XviD
Duration : 1h 50mn
Bit rate : 1 671 Kbps
Width : 720 pixels
Height : 304 pixels
Display aspect ratio : 2.35:1
Frame rate : 23.976 fps
Color space : YUV
Chroma subsampling : 4:2:0
Bit depth : 8 bits
Scan type : Progressive
Compression mode : Lossy
Bits/(Pixel*Frame) : 0.319
Stream size : 1.29 GiB (89%)
Writing library : XviD 73

Audio
ID : 1
Format : AC-3
Format/Info : Audio Coding 3
Mode extension : CM (complete main)
Format settings, Endianness : Big
Codec ID : 2000
Duration : 1h 50mn
Bit rate mode : Constant
Bit rate : 192 Kbps
Channel(s) : 2 channels
Channel positions : Front: L R
Sampling rate : 48.0 KHz
Bit depth : 16 bits
Compression mode : Lossy
Stream size : 152 MiB (10%)
Alignment : Split accross interleaves
Interleave, duration : 42 ms (1.00 video frame)
Interleave, preload duratio : 500 ms


picpicpicpicpic
Для увеличения картинки щелкните мышкой по превью



Этот торрент недоступен для скачивания без регистрации, однако доступен по публичной magnet-ссылке (источники с публичных трекеров). Перед использованием ссылки прочтите, пожалуйста Пользовательское соглашение, а также как можно дольше оставайтесь на раздаче! Для того, чтобы скачать сам торрент-файл (который видит больше источников), а также для того, чтобы поблагодарить релизера, вам необходимо зарегистрироваться. Если регистрироваться лень - вы можете также попробовать скачать релиз по нашим партнерским ссылкам ниже.

[underverse.su].t54799.torrent
Трекер: Зарегистрирован   [ 23.05.2015 19:44 ]  

Статус: проверено (by Ведьмочка at 23.05.2015 19:45)
Поблагодарили: 6 человек
Тип торрента: публичный - доступные источники с открытых трекеров: 
Размер: 1,45 GB (занимает 1/3 DVDR, для записи нужно 1 болванка DVDR/RW)
 
 
Похожие темы
Форум Тема Автор Торрент Отв. Посл. сооб.
Зарубежное кино [DVDRip, Low-Res HDRip, и т.д.] Бесконечно белый медведь / Infinitely Polar Bear (Майя Форбс) [2014 г., драма, комедия, HDRip] DVO makkol
3 | 0

0 | 357

4

08.01.2016 13:14

Зарубежное кино [DVDRip, Low-Res HDRip, и т.д.] Бесконечно белый медведь / Infinitely Polar Bear (Майя Форбс / Maya Forbes) [2014 г., драма, комедия, BDRip] MVO + Sub (Rus, Eng) 90ytr90
3 | 0

0 | 579

16

09.01.2016 08:25

Зарубежное кино [DVDRip, Low-Res HDRip, и т.д.] Бесконечно белый медведь / Infinitely Polar Bear (Майя Форбс / Maya Forbes) [2014 г., драма, комедия, BDRip-AVC] MVO + Original (Eng) 90ytr90
22 | 0

0 | 232

6

09.01.2016 09:24

Зарубежное кино [DVDRip, Low-Res HDRip, и т.д.] Бесконечно белый медведь / Infinitely Polar Bear (Майя Форбс / Maya Forbes) [2014 г., драма, комедия, BDRip-AVC] MVO + Sub (Rus, Eng) 90ytr90
17 | 0

0 | 362

3

09.01.2016 11:45

Зарубежное кино [HDDVDRip / BDRip / WEB-DL / HDTV 1080/720р] Бесконечность / Infini (Шейн Эббесс) [2015 г., Фантастика, Триллер, Драма, WEB-DL 720p] DVO (RUS) + Original (ENG) + Subs (ENG) Ведьмочка
8 | 0

0 | 813

43

23.05.2015 19:39

Зарубежное кино [HDDVDRip / BDRip / WEB-DL / HDTV 1080/720р] Бесконечно белый медведь / Infinitely Polar Bear (Майя Форбс) [2014 г., драма, комедия, BDRip 1080p] DVO + Original makkol
2 | 0

0 | 342

2

08.01.2016 13:22

Зарубежное кино [HDDVDRip / BDRip / WEB-DL / HDTV 1080/720р] Бесконечно белый медведь / Infinitely Polar Bear (Майя Форбс / Maya Forbes) [2014 г., драма, комедия, BDRip 720p] MVO + Original (Eng) 90ytr90
25 | 2

0 | 256

5

09.01.2016 08:31

Зарубежное кино [HDDVDRip / BDRip / WEB-DL / HDTV 1080/720р] Бесконечно белый медведь / Infinitely Polar Bear (Майя Форбс / Maya Forbes) [2014 г., драма, комедия, BDRip 1080p] MVO + Original (Eng) 90ytr90
4 | 2

0 | 276

6

09.01.2016 08:56

dargot54 Пол:Муж

28-Июн-2015 12:27

Почти два часа зря потраченного времени. Ничего интересного и впечатляющего.

Яндекс.Метрика powered by Sphinx


В Н И М А Н И Е
Сайт не распространяет и не хранит электронные версии произведений, а лишь бесплатно и без коммерческой выгоды (не требуя взамен платы,
SMS и т.д.) предоставляет доступ к создаваемому пользователями каталогу ссылок на торрент-файлы, которые содержат только списки хеш-сумм.
Убедительная просьба с жалобами обращаться напрямую к пользователю, разместившему торрент файл.

Вверх