Loading...
Error

Во имя любви (Андрей Селиванов) [2015 г., Мелодрама, HDTVRip] Original (RUS)

Статистика раздачи
Размер:  1,37 GB   |    Зарегистрирован:  1 год 6 месяцев   |    Скачан:  28 раз

Полного источника не было: 17 дней

Сидов:  0  |  0 KB/s  ]   Личеров:  0  |  0 KB/s  ]

* - сиды/пиры с внешних источников

   
 
Автор Сообщение

Ведьмочка Пол:Жен

23-Май-2015 18:55

Во имя любви


Страна: Россия
Год выпуска: 2015
Жанр: Мелодрама
Продолжительность: 01:45:00
Режиссёр: Андрей Селиванов
В ролях: Екатерина Данилова, Антонина Паперная, Станислав Бондаренко, Сергей Астахов, Юрий Сазонов, Диана Енакаева, Ирина Розанова, Александр Фарбер
Сюжет фильма:
Настя — человек редкой душевной щедрости. Помогая всем вокруг, она совсем беззащитна перед жестокими законами «выживания».

Счастье, казалось бы, улыбается Насте — она встречает «мужчину своей мечты» Андрея. Но хитрая подруга Света с легкостью уводит у Насти возлюбленного и разбивает ей сердце.

Однако трагическая случайность вскоре открывает Андрею глаза. Парень начинает понимать, что упустил сокровище, а под маской «доброй жены» скрывается настоящий монстр.



Качество видео: HDTVRip
Формат: AVI

Видео: XviD, 720x400 (16:9), 25.000 fps, ~1971 Кбит/сек
Аудио: AC-3, 192 Кбит/сек, 2 Канала, 48.0 КГц

Rip by:



General
Complete name : \Во имя любви.2015.HDTVRip.Files-x.avi
Format : AVI
Format/Info : Audio Video Interleave
File size : 1.37 GiB
Duration : 1h 30mn
Overall bit rate : 2 173 Kbps
Writing application : VirtualDubMod 1.5.10.3 | www.virtualdub-fr.org || (build 2550/release)
Writing library : VirtualDubMod build 2550/release

Video
ID : 0
Format : MPEG-4 Visual
Format profile : Advanced Simple@L5
Format settings, BVOP : 1
Format settings, QPel : No
Format settings, GMC : No warppoints
Format settings, Matrix : Custom
Codec ID : XVID
Codec ID/Hint : XviD
Duration : 1h 30mn
Bit rate : 1 971 Kbps
Width : 720 pixels
Height : 400 pixels
Display aspect ratio : 16:9
Frame rate : 25.000 fps
Color space : YUV
Chroma subsampling : 4:2:0
Bit depth : 8 bits
Scan type : Progressive
Compression mode : Lossy
Bits/(Pixel*Frame) : 0.274
Stream size : 1.24 GiB (91%)
Writing library : XviD 73

Audio
ID : 1
Format : AC-3
Format/Info : Audio Coding 3
Mode extension : CM (complete main)
Format settings, Endianness : Big
Codec ID : 2000
Duration : 1h 30mn
Bit rate mode : Constant
Bit rate : 192 Kbps
Channel(s) : 2 channels
Channel positions : Front: L R
Sampling rate : 48.0 KHz
Bit depth : 16 bits
Compression mode : Lossy
Stream size : 124 MiB (9%)
Alignment : Split accross interleaves
Interleave, duration : 40 ms (1.00 video frame)
Interleave, preload duratio : 500 ms


picpicpicpicpic
Для увеличения картинки щелкните мышкой по превью



Этот торрент недоступен для скачивания без регистрации, однако доступен по публичной magnet-ссылке (источники с публичных трекеров). Перед использованием ссылки прочтите, пожалуйста Пользовательское соглашение, а также как можно дольше оставайтесь на раздаче! Для того, чтобы скачать сам торрент-файл (который видит больше источников), а также для того, чтобы поблагодарить релизера, вам необходимо зарегистрироваться. Если регистрироваться лень - вы можете также попробовать скачать релиз по нашим партнерским ссылкам ниже.

[underverse.su].t54796.torrent
Трекер: Зарегистрирован   [ 23.05.2015 18:55 ]  

Статус: проверено (by Ведьмочка at 23.05.2015 18:58)
Поблагодарили: 1 человек
Тип торрента: публичный - доступные источники с открытых трекеров: 
Размер: 1,37 GB (занимает 0,31 DVDR, для записи нужно 1 болванка DVDR/RW)
 
 
Похожие темы
Форум Тема Автор Торрент Отв. Посл. сооб.
Наше кино [HDDVDRip / BDRip / WEB-DL / HDTV 1080/720р] Во имя любви (Андрей Селиванов) [2015 г., Мелодрама, HDTVRip 720p] Original (RUS) Ведьмочка
5 | 1

0 | 716

17

24.05.2015 19:19


Яндекс.Метрика powered by Sphinx


В Н И М А Н И Е
Сайт не распространяет и не хранит электронные версии произведений, а лишь бесплатно и без коммерческой выгоды (не требуя взамен платы,
SMS и т.д.) предоставляет доступ к создаваемому пользователями каталогу ссылок на торрент-файлы, которые содержат только списки хеш-сумм.
Убедительная просьба с жалобами обращаться напрямую к пользователю, разместившему торрент файл.

Вверх