Loading...
Error

Цветок папоротника / Серии: 1-16 из 16 (Сергей Лялин) [2014 г., Мелодрама, HDTVRip]

Статистика раздачи
Размер:  8,63 GB   |    Зарегистрирован:  1 год 6 месяцев   |    Скачан:  18 раз

Полного источника не было: 1 месяц 5 дней

Сидов:  0  |  0 KB/s  ]   Личеров:  0  |  0 KB/s  ]

* - сиды/пиры с внешних источников

   
 
Автор Сообщение

Ведьмочка Пол:Жен

22-Май-2015 19:34

Цветок папоротника


Страна: Россия
Год выпуска: 2015
Жанр: Мелодрама
Продолжительность: ~00:44:00 (каждая серия)
Режиссёр: Сергей Лялин
В ролях: Сергей Мухин, Евгения Нохрина, Анастасия Стежко, Сергей Жарков, Ада Роговцева, Екатерина Васильева, Евгений Сидихин, Елена Степанова (II), Александр Цуркан, Сергей Шеховцов
Сюжет фильма:
Маленькая Глущевка — необычная деревенька, здесь есть аномальная зона, где ломаются компасы, вода течет в гору и, по легенде, зарыт бесценный клад. В поисках разгадки здешних секретов в Глущевку приезжает авантюрный геолог Тим.

Однажды ночью в таинственный лес приходят две подружки — Тоня, невеста первого парня на деревне Петра, и капризная студентка из города Ира. У обеих не ладится личная жизнь, и девушки решают отыскать волшебный папоротник, цветущий лишь одну ночь. К своему ужасу, вместо чудо-цветка они находят Тима, раненого и почти утонувшего в проклятом Ведьмином болоте…


Качество видео: HDTVRip
Формат: AVI

Видео: XviD, 720x400 (16:9), 25.000 fps, ~1550 Кбит/сек
Аудио: AC-3, 192 Кбит/сек, 2 Канала, 48.0 КГц

Rip by:



General
Complete name : \Цветок папоротника.2015.HDTVRip.Files-x\16.Цветок папоротника.2015.HDTVRip.Files-x.avi
Format : AVI
Format/Info : Audio Video Interleave
File size : 553 MiB
Duration : 45mn 47s
Overall bit rate : 1 687 Kbps
Writing application : VirtualDubMod 1.5.10.3 | www.virtualdub-fr.org || (build 2550/release)
Writing library : VirtualDubMod build 2550/release

Video
ID : 0
Format : MPEG-4 Visual
Format profile : Advanced Simple@L5
Format settings, BVOP : 1
Format settings, QPel : No
Format settings, GMC : No warppoints
Format settings, Matrix : Custom
Codec ID : XVID
Codec ID/Hint : XviD
Duration : 45mn 47s
Bit rate : 1 486 Kbps
Width : 720 pixels
Height : 400 pixels
Display aspect ratio : 16:9
Frame rate : 25.000 fps
Color space : YUV
Chroma subsampling : 4:2:0
Bit depth : 8 bits
Scan type : Progressive
Compression mode : Lossy
Bits/(Pixel*Frame) : 0.206
Stream size : 487 MiB (88%)
Writing library : XviD 73

Audio
ID : 1
Format : AC-3
Format/Info : Audio Coding 3
Mode extension : CM (complete main)
Format settings, Endianness : Big
Codec ID : 2000
Duration : 45mn 47s
Bit rate mode : Constant
Bit rate : 192 Kbps
Channel(s) : 2 channels
Channel positions : Front: L R
Sampling rate : 48.0 KHz
Bit depth : 16 bits
Compression mode : Lossy
Stream size : 62.9 MiB (11%)
Alignment : Split accross interleaves
Interleave, duration : 40 ms (1.00 video frame)
Interleave, preload duratio : 500 ms


picpicpicpicpic
Для увеличения картинки щелкните мышкой по превью



Этот торрент недоступен для скачивания без регистрации, однако доступен по публичной magnet-ссылке (источники с публичных трекеров). Перед использованием ссылки прочтите, пожалуйста Пользовательское соглашение, а также как можно дольше оставайтесь на раздаче! Для того, чтобы скачать сам торрент-файл (который видит больше источников), а также для того, чтобы поблагодарить релизера, вам необходимо зарегистрироваться. Если регистрироваться лень - вы можете также попробовать скачать релиз по нашим партнерским ссылкам ниже.

[underverse.su].t54784.torrent
Трекер: Зарегистрирован   [ 22.05.2015 19:34 ]  

Статус: проверено (by Ведьмочка at 22.05.2015 19:37)
Поблагодарили: пока никто не поблагодарил...
Тип торрента: публичный - доступные источники с открытых трекеров: 
Размер: 8,63 GB (занимает 1,97 DVDR, для записи нужно 2 болванки DVDR/RW)
 
 
Похожие темы
Форум Тема Автор Торрент Отв. Посл. сооб.
xUSSR сериалы [BD / Remux / BDRip / WEB-DL / HDTV 1080/720р] Цветок папоротника / Серии: 1-16 из 16 (Сергей Лялин) [2014 г., Мелодрама, HDTVRip 720p] Ведьмочка
0 | 1

0 | 500

6

22.05.2015 19:29


Яндекс.Метрика powered by Sphinx


В Н И М А Н И Е
Сайт не распространяет и не хранит электронные версии произведений, а лишь бесплатно и без коммерческой выгоды (не требуя взамен платы,
SMS и т.д.) предоставляет доступ к создаваемому пользователями каталогу ссылок на торрент-файлы, которые содержат только списки хеш-сумм.
Убедительная просьба с жалобами обращаться напрямую к пользователю, разместившему торрент файл.

Вверх