Loading...
Error

Неуловимые (Артем Аксененко) [2015 г., Приключения, Комедия, Криминал, WEBRip] Original (RUS, iTunes)

Статистика раздачи
Размер:  1,45 GB   |    Зарегистрирован:  1 год 6 месяцев   |    Скачан:  88 раз

Полного источника не было: 16 дней

Сидов:  0  |  0 KB/s  ]   Личеров:  0  |  0 KB/s  ]

* - сиды/пиры с внешних источников

   
 
Автор Сообщение

Ведьмочка Пол:Жен

21-Май-2015 02:04

Неуловимые
«Молодые изменят мир»


Страна: Россия
Год выпуска: 2015
Жанр: Приключения, Комедия, Криминал
Продолжительность: 01:26:19
Режиссёр: Артем Аксененко
В ролях: Александра Бортич, Иван Шахназаров, Илья Маланин, Анвар Халилулаев, Денис Шведов, Евгений Мундум, Джемал Тетруашвили, Ксения Баскакова, Павел Юлку, Александр Сазонов
Сюжет фильма:
Ночью в центре Москвы сбита девушка, ей срочно нужна сложнейшая операция. Ее подруга Кира находит виновника, наглого и циничного олигарха Сергея Полянского, который отказывается признать свою вину и помочь пострадавшей. Ему плевать, у него все схвачено. В отчаянии Кира обращается за помощью к трем парням симпатизирующим ей — быковатому Феде, самоуверенному красавчику Артему и компьютерному гению Жене. Парни заключают между собой пакт — «поможем девушке, накажем негодяя, а потом решим, кто станет ее парнем».


Качество видео: WEBRip
Формат: AVI

Видео: XviD, 688x368 (1.85:1), 25.000 fps, ~2008 Кбит/сек
Аудио: AC-3, 384 Кбит/сек, 2 Канала, 48.0 КГц

Rip by:



General
Complete name : \Neulovimye_2015_WEB-DLRip__[scarabey.org].avi
Format : AVI
Format/Info : Audio Video Interleave
File size : 1.45 GiB
Duration : 1h 26mn
Overall bit rate : 2 402 Kbps
Writing application : VirtualDubMod 1.5.10.3 | www.virtualdub-fr.org || (build 2550/release)
Writing library : VirtualDubMod build 2550/release

Video
ID : 0
Format : MPEG-4 Visual
Format profile : Advanced Simple@L5
Format settings, BVOP : 1
Format settings, QPel : No
Format settings, GMC : No warppoints
Format settings, Matrix : Custom
Codec ID : XVID
Codec ID/Hint : XviD
Duration : 1h 26mn
Bit rate : 2 008 Kbps
Width : 688 pixels
Height : 368 pixels
Display aspect ratio : 1.85:1
Frame rate : 25.000 fps
Color space : YUV
Chroma subsampling : 4:2:0
Bit depth : 8 bits
Scan type : Progressive
Compression mode : Lossy
Bits/(Pixel*Frame) : 0.317
Stream size : 1.21 GiB (84%)
Writing library : XviD 73

Audio
ID : 1
Format : AC-3
Format/Info : Audio Coding 3
Mode extension : CM (complete main)
Format settings, Endianness : Big
Codec ID : 2000
Duration : 1h 26mn
Bit rate mode : Constant
Bit rate : 384 Kbps
Channel(s) : 2 channels
Channel positions : Front: L R
Sampling rate : 44.1 KHz
Bit depth : 16 bits
Compression mode : Lossy
Stream size : 237 MiB (16%)
Alignment : Split accross interleaves
Interleave, duration : 40 ms (1.00 video frame)
Interleave, preload duratio : 500 ms


picpicpicpicpic
Для увеличения картинки щелкните мышкой по превью



Этот торрент недоступен для скачивания без регистрации, однако доступен по публичной magnet-ссылке (источники с публичных трекеров). Перед использованием ссылки прочтите, пожалуйста Пользовательское соглашение, а также как можно дольше оставайтесь на раздаче! Для того, чтобы скачать сам торрент-файл (который видит больше источников), а также для того, чтобы поблагодарить релизера, вам необходимо зарегистрироваться. Если регистрироваться лень - вы можете также попробовать скачать релиз по нашим партнерским ссылкам ниже.

[underverse.su].t54731.torrent
Трекер: Зарегистрирован   [ 21.05.2015 02:04 ]  

Статус: T временная (by Ведьмочка at 21.05.2015 02:04)
Поблагодарили: 3 человека
Тип торрента: публичный - доступные источники с открытых трекеров: 
Размер: 1,45 GB (занимает 1/3 DVDR, для записи нужно 1 болванка DVDR/RW)
 
 
Похожие темы
Форум Тема Автор Торрент Отв. Посл. сооб.
Зарубежное кино [DVDRip, Low-Res HDRip, и т.д.] Неуловимые / Red Dawn (Дэн Брэдли) [2012 г., боевик , DVDRip] MVO Чертёнок
0 | 0

6 | 1549

78

26.02.2013 04:44

Зарубежное кино [DVDRip, Low-Res HDRip, и т.д.] Неуловимые / Red Dawn (Дэн Брэдли) [2012 г., боевик, HDRip] MVO [BaibaKo] RG NewCinema
0 | 0

4 | 2558

184

13.03.2013 11:44

Зарубежное кино [DVDRip, Low-Res HDRip, и т.д.] Неуловимые / Red Dawn (Дэн Брэдли) [2012 г., боевик, BDRip-AVC] OiVaVoi
0 | 1

0 | 1175

43

16.03.2013 09:26

Зарубежное кино [DVDRip, Low-Res HDRip, и т.д.] Неуловимые / Красный рассвет / Red Dawn (Дэн Брэдли) [2012 г., боевик, HDRip] Dub 90ytr90
1 | 0

0 | 1292

43

20.04.2013 09:35

Зарубежное кино [DVDRip, Low-Res HDRip, и т.д.] Неуловимые / Красный рассвет / Red Dawn (Дэн Брэдли) [2012 г., боевик, BDRip-AVC] Dub + Eng 90ytr90
0 | 0

0 | 1145

32

23.04.2013 16:17

Зарубежное кино [DVDRip, Low-Res HDRip, и т.д.] Неуловимые / Красный рассвет / Red Dawn (Дэн Брэдли) [2012 г., боевик, HDRip-AVC] Dub 90ytr90
2 | 0

0 | 705

17

27.04.2013 10:46

Наше кино [DVDRip, Low-Res HDRip, и т.д.] Неуловимые: Последний герой (Артем Аксененко) [2015 г., мелодрама, криминал, WEB-DLRip] makkol
11 | 0

0 | 456

34

07.12.2015 22:52

T Наше кино [DVDRip, Low-Res HDRip, и т.д.] Неуловимые. Бангкок (Артем Аксененко) [2016 г., триллер, криминал, мелодрама, WEB-DLRip] makkol
84 | 0

0 | 476

38

13.08.2016 11:29

T Наше кино [DVDRip, Low-Res HDRip, и т.д.] Неуловимые: Джекпот (Артем Аксененко) [2016 г., приключения, комедия, криминал, WEB-DLRip] makkol
137 | 5

0 | 394

22

26.08.2016 14:19

Зарубежное кино [HDDVDRip / BDRip / WEB-DL / HDTV 1080/720р] Неуловимые / Красный рассвет / Red Dawn (Дэн Брэдли) [2012 г., боевик, BDRip 720p] Dub + Eng 90ytr90
2 | 0

0 | 535

12

20.04.2013 10:37

val.s.g Пол:Муж

08-Июн-2015 05:48

Надо поддержать дебютантку. Лучше поздно, чем никогда. :Rose:

Яндекс.Метрика powered by Sphinx


В Н И М А Н И Е
Сайт не распространяет и не хранит электронные версии произведений, а лишь бесплатно и без коммерческой выгоды (не требуя взамен платы,
SMS и т.д.) предоставляет доступ к создаваемому пользователями каталогу ссылок на торрент-файлы, которые содержат только списки хеш-сумм.
Убедительная просьба с жалобами обращаться напрямую к пользователю, разместившему торрент файл.

Вверх