Loading...
Error

Лофт / The Loft (Эрик Ван Лой) [2014 г., Триллер, BDRip-AVC] Dub (RUS, Лицензия)

Статистика раздачи
Размер:  1,46 GB   |    Зарегистрирован:  1 год 6 месяцев   |    Скачан:  17 раз

Полного источника не было: 10 часов

Сидов:  0  |  0 KB/s  ]   Личеров:  0  |  0 KB/s  ]

* - сиды/пиры с внешних источников

   
 
Автор Сообщение

Ведьмочка Пол:Жен

20-Май-2015 23:29

Лофт / The Loft
«Идеальное место для запрещенных фантазий»


Страна: Бельгия , США
Год выпуска: 2014
Жанр: Триллер
Продолжительность: 01:42:59
Режиссёр: Эрик Ван Лой
В ролях: Карл Урбан, Джеймс Марсден, Вентворт Миллер, Эрик Стоунстрит, Маттиас Шонартс, Изабель Лукас, Рэйчел Тейлор, Рона Митра, Валери Крус, Кали Роча
Сюжет фильма:
Пятеро женатых друзей решают совместно снять респектабельную квартиру, чтобы приводить туда любовниц и реализовывать свои сексуальные фантазии. Но однажды они находят в квартире обнаженное тело убитой женщины… Все пятеро подозревают в убийстве друг друга.

Озвучивание:
  • Дублированный, Русский [Лицензия]

Качество видео: BDRip-AVC
Формат: MKV

Видео: AVC, 1008x420 (2.40:1), 23.976, ~1582 Кбит/сек
Аудио: AC-3, 448 Кбит/сек, 6 Каналов, 48.0 КГц

Rip by: potroks



General
Unique ID : 217118463392082581820476018914105225620 (0xA3577EB92592FC26BE51D96B290BF194)
Complete name : \Loft.2014.RUS.BDRip.x264.-HELLYWOOD.mkv
Format : Matroska
Format version : Version 4 / Version 2
File size : 1.46 GiB
Duration : 1h 42mn
Overall bit rate : 2 032 Kbps
Movie name : The Loft (2014) - HELLYWOOD
Encoded date : UTC 2015-05-20 16:40:07
Writing application : mkvmerge v5.9.0 ('On The Loose') built on Dec 15 2012 16:39:58
Writing library : libebml v1.3.0 + libmatroska v1.4.0

Video
ID : 1
Format : AVC
Format/Info : Advanced Video Codec
Format profile : High@L4.1
Format settings, CABAC : Yes
Format settings, ReFrames : 11 frames
Codec ID : V_MPEG4/ISO/AVC
Duration : 1h 42mn
Bit rate : 1 582 Kbps
Width : 1 008 pixels
Height : 420 pixels
Display aspect ratio : 2.40:1
Frame rate mode : Constant
Frame rate : 23.976 fps
Color space : YUV
Chroma subsampling : 4:2:0
Bit depth : 8 bits
Scan type : Progressive
Bits/(Pixel*Frame) : 0.156
Stream size : 1.11 GiB (76%)
Title : potroks
Writing library : x264 core 146 r2538 121396c
Encoding settings : cabac=1 / ref=11 / deblock=1:-2:-2 / analyse=0x3:0x113 / me=umh / subme=11 / psy=1 / psy_rd=1.02:0.05 / mixed_ref=1 / me_range=48 / chroma_me=1 / trellis=2 / 8x8dct=1 / cqm=0 / deadzone=21,11 / fast_pskip=0 / chroma_qp_offset=-3 / threads=12 / lookahead_threads=2 / sliced_threads=0 / nr=0 / decimate=0 / interlaced=0 / bluray_compat=0 / constrained_intra=0 / bframes=12 / b_pyramid=2 / b_adapt=2 / b_bias=0 / direct=3 / weightb=1 / open_gop=0 / weightp=2 / keyint=250 / keyint_min=23 / scenecut=40 / intra_refresh=0 / rc_lookahead=60 / rc=2pass / mbtree=0 / bitrate=1582 / ratetol=1.0 / qcomp=0.70 / qpmin=0 / qpmax=69 / qpstep=4 / cplxblur=20.0 / qblur=0.5 / vbv_maxrate=14000 / vbv_bufsize=14000 / nal_hrd=none / filler=0 / ip_ratio=1.35 / pb_ratio=1.25 / aq=1:0.80
Language : English
Default : Yes
Forced : No

Audio
ID : 2
Format : AC-3
Format/Info : Audio Coding 3
Mode extension : CM (complete main)
Format settings, Endianness : Big
Codec ID : A_AC3
Duration : 1h 42mn
Bit rate mode : Constant
Bit rate : 448 Kbps
Channel(s) : 6 channels
Channel positions : Front: L C R, Side: L R, LFE
Sampling rate : 48.0 KHz
Bit depth : 16 bits
Compression mode : Lossy
Stream size : 330 MiB (22%)
Title : Dub | DD 5.1 @ 448 kbps - R5
Language : Russian
Default : Yes
Forced : No

Menu
00:00:00.000 : en:Chapter 01
00:04:30.478 : en:Chapter 02
00:10:29.086 : en:Chapter 03
00:14:26.615 : en:Chapter 04
00:20:08.582 : en:Chapter 05
00:26:40.599 : en:Chapter 06
00:32:04.547 : en:Chapter 07
00:38:04.407 : en:Chapter 08
00:42:38.806 : en:Chapter 09
00:46:53.977 : en:Chapter 10
00:50:19.599 : en:Chapter 11
00:54:29.099 : en:Chapter 12
01:01:50.957 : en:Chapter 13
01:08:45.621 : en:Chapter 14
01:13:09.093 : en:Chapter 15
01:20:52.722 : en:Chapter 16
01:25:55.817 : en:Chapter 17
01:30:09.404 : en:Chapter 18
01:35:45.781 : en:Chapter 19
01:37:45.985 : en:Chapter 20
01:42:59.131 : en:Chapter 21


picpicpicpicpic
Для увеличения картинки щелкните мышкой по превью



Этот торрент недоступен для скачивания без регистрации, однако доступен по публичной magnet-ссылке (источники с публичных трекеров). Перед использованием ссылки прочтите, пожалуйста Пользовательское соглашение, а также как можно дольше оставайтесь на раздаче! Для того, чтобы скачать сам торрент-файл (который видит больше источников), а также для того, чтобы поблагодарить релизера, вам необходимо зарегистрироваться. Если регистрироваться лень - вы можете также попробовать скачать релиз по нашим партнерским ссылкам ниже.

[underverse.su].t54721.torrent
Трекер: Зарегистрирован   [ 20.05.2015 23:29 ]  

Статус: проверено (by Ведьмочка at 20.05.2015 23:30)
Поблагодарили: пока никто не поблагодарил...
Тип торрента: публичный - доступные источники с открытых трекеров: 
Размер: 1,46 GB (занимает 0,33 DVDR, для записи нужно 1 болванка DVDR/RW)
 
 
Похожие темы
Форум Тема Автор Торрент Отв. Посл. сооб.
T Зарубежное кино [DVDRip, Low-Res HDRip, и т.д.] Лофт / The Loft (Эрик Ван Лой / Erik Van Looy) [2014 г., триллер, WEBRip] Dub (чистый звук) + Original (Eng) 90ytr90
0 | 0

0 | 5358

18

21.02.2015 19:00

Зарубежное кино [DVDRip, Low-Res HDRip, и т.д.] Лофт / The Loft (Эрик Ван Лой / Erik Van Looy) [2014 г., триллер, WEB-DLRip] Dub 90ytr90
0 | 0

0 | 5258

10

24.02.2015 17:15

Зарубежное кино [DVDRip, Low-Res HDRip, и т.д.] Лофт / The Loft (Эрик Ван Лой / Erik Van Looy) [2014 г., триллер, HDRip] Dub [Лицензия] Паукан
3 | 1

0 | 5013

11

19.05.2015 10:29

Зарубежное кино [DVDRip, Low-Res HDRip, и т.д.] Лофт / The Loft (Эрик Ван Лой) [2014 г., Триллер, BDRip-AVC] Dub (RUS, Лицензия) + Original (ENG) + Subs (ENG) Ведьмочка
1 | 0

0 | 5286

21

21.05.2015 00:17

Зарубежное кино [HDDVDRip / BDRip / WEB-DL / HDTV 1080/720р] Лофт / The Loft (Эрик Ван Лой / Erik Van Looy) [2014 г., триллер, WEB-DLRip 720p] Dub + Original (Eng) 90ytr90
0 | 0

0 | 5280

17

23.02.2015 20:10

Зарубежное кино [HDDVDRip / BDRip / WEB-DL / HDTV 1080/720р] Лофт / The Loft (Эрик Ван Лой) [2014 г., Триллер, BDRip 1080p] Dub (RUS, Лицензия) + Original (ENG) + Subs (ENG) Ведьмочка
21 | 0

0 | 2303

14

20.05.2015 23:54

Зарубежное кино [HDDVDRip / BDRip / WEB-DL / HDTV 1080/720р] Лофт / The Loft (Эрик Ван Лой) [2014 г., Триллер, BDRip 720p] Dub (RUS, Лицензия) + Original (ENG) + Subs (ENG) Ведьмочка
21 | 2

0 | 2396

12

21.05.2015 00:08

T Новинки кино [CAMRip, TS, DVDScr, WP, TC] Лофт / The Loft (Эрик Ван Лой / Erik Van Looy) [2014 г., триллер, TS] Dub 90ytr90
0 | 0

0 | 5480

21

17.02.2015 15:10


Яндекс.Метрика powered by Sphinx


В Н И М А Н И Е
Сайт не распространяет и не хранит электронные версии произведений, а лишь бесплатно и без коммерческой выгоды (не требуя взамен платы,
SMS и т.д.) предоставляет доступ к создаваемому пользователями каталогу ссылок на торрент-файлы, которые содержат только списки хеш-сумм.
Убедительная просьба с жалобами обращаться напрямую к пользователю, разместившему торрент файл.

Вверх