Loading...
Error

Битва за Мён Рян / Myeong-ryang (Ким Хан Мин) [2014 г., Приключения, Военный, Биография, HDRip] DVO (RUS, Ворон & Wenlana)

Статистика раздачи
Размер:  2,06 GB   |    Зарегистрирован:  1 год 6 месяцев   |    Скачан:  10 раз

Полного источника не было: 11 месяцев

Сидов:  0  |  0 KB/s  ]   Личеров:  0  |  0 KB/s  ]

* - сиды/пиры с внешних источников

   
 
Автор Сообщение

Ведьмочка Пол:Жен

20-Май-2015 20:26

Битва за Мён Рян / Myeong-ryang


Страна: Южная Корея
Год выпуска: 2014
Жанр: Приключения, Военный, Биография
Продолжительность: 02:08:46
Режиссёр: Ким Хан Мин
В ролях: Чхве Мин Сик, Сын-Рён Рёо, Рю Сын Рён, Jin-Woong Cho, Ким Мён Гон, Чин Гу, Ли Чун Хюн, Чо Чжин Ун
Сюжет фильма:
Фильм рассказывает об известной битве за Мён Рян, состоявшейся в 1597 году во время японского вторжения в Корею. Тогда культовому адмиралу Ли Сунсину удалось уничтожить 133 японских корабля имея флот всего в 13 кораблей.

Озвучивание:
  • Любительский, Двухголосный, Русский [Ворон & Wenlana]

Качество видео: HDRip
Формат: AVI

Видео: XviD, 720x304 (2.35:1), 23.976, ~1827 Кбит/сек
Аудио: AC-3, 448 Кбит/сек, 6 Каналов, 48.0 КГц



General
Complete name : \The.Admiral.Roaring.Currents.2014.L2.HDRip.2100Mb.avi
Format : AVI
Format/Info : Audio Video Interleave
Format profile : OpenDML
File size : 2.06 GiB
Duration : 2h 8mn
Overall bit rate : 2 287 Kbps
Writing application : VirtualDubMod 1.5.10.2 (build 2540/release)
Writing library : VirtualDubMod build 2540/release

Video
ID : 0
Format : MPEG-4 Visual
Format profile : Advanced Simple@L5
Format settings, BVOP : 2
Format settings, QPel : No
Format settings, GMC : No warppoints
Format settings, Matrix : Default (MPEG)
Codec ID : XVID
Codec ID/Hint : XviD
Duration : 2h 8mn
Bit rate : 1 827 Kbps
Width : 720 pixels
Height : 304 pixels
Display aspect ratio : 2.35:1
Frame rate : 23.976 fps
Color space : YUV
Chroma subsampling : 4:2:0
Bit depth : 8 bits
Scan type : Progressive
Compression mode : Lossy
Bits/(Pixel*Frame) : 0.348
Stream size : 1.64 GiB (80%)
Writing library : XviD 1.2.1 (UTC 2008-12-04)

Audio
ID : 1
Format : AC-3
Format/Info : Audio Coding 3
Mode extension : CM (complete main)
Format settings, Endianness : Big
Codec ID : 2000
Duration : 2h 8mn
Bit rate mode : Constant
Bit rate : 448 Kbps
Channel(s) : 6 channels
Channel positions : Front: L C R, Side: L R, LFE
Sampling rate : 48.0 KHz
Bit depth : 16 bits
Compression mode : Lossy
Stream size : 413 MiB (20%)
Alignment : Split accross interleaves
Interleave, duration : 42 ms (1.00 video frame)
Interleave, preload duratio : 500 ms


picpicpicpicpic
Для увеличения картинки щелкните мышкой по превью



Этот торрент недоступен для скачивания без регистрации, однако доступен по публичной magnet-ссылке (источники с публичных трекеров). Перед использованием ссылки прочтите, пожалуйста Пользовательское соглашение, а также как можно дольше оставайтесь на раздаче! Для того, чтобы скачать сам торрент-файл (который видит больше источников), а также для того, чтобы поблагодарить релизера, вам необходимо зарегистрироваться. Если регистрироваться лень - вы можете также попробовать скачать релиз по нашим партнерским ссылкам ниже.

[underverse.su].t54718.torrent
Трекер: Зарегистрирован   [ 20.05.2015 20:26 ]  

Статус: проверено (by Ведьмочка at 20.05.2015 20:26)
Поблагодарили: пока никто не поблагодарил...
Тип торрента: публичный - доступные источники с открытых трекеров: 
Размер: 2,06 GB (занимает 0,47 DVDR, для записи нужно 1 болванка DVDR/RW)
 
 
Похожие темы
Форум Тема Автор Торрент Отв. Посл. сооб.
Зарубежное кино [DVDRip, Low-Res HDRip, и т.д.] Битва за Мён Рян / Myeong-ryang / The Admiral: Roaring Currents (Ким Хан Мин / Han-min Kim) [2014 г., приключения, военный, биография, HDTVRip] VO (Green Tea) 90ytr90
10 | 1

0 | 997

50

16.01.2015 15:52

Зарубежное кино [DVDRip, Low-Res HDRip, и т.д.] Битва за Мён Рян / Myeong-ryang / The Admiral: Roaring Currents (Ким Хан Мин / Han-min Kim) [2014 г., приключения, военный, биография, HDTVRip] VO (Green Tea) + Original (Kor) 90ytr90
4 | 0

0 | 654

19

16.01.2015 20:17

Зарубежное кино [DVDRip, Low-Res HDRip, и т.д.] Битва за Мён Рян / Myeong-ryang (Ким Хан Мин) [2014 г., приключения, военный, биография, HDRip] DVO [Ворон & Wenlana] Паукан
2 | 0

0 | 265

12

19.05.2015 14:49

Зарубежное кино [HDDVDRip / BDRip / WEB-DL / HDTV 1080/720р] Битва за Мён Рян / Myeong-ryang (Ким Хан Мин) [2014 г., Приключения, Военный, Биография, BDRip 720p] DVO (RUS, Ворон & Wenlana) + VO (RUS, Green Tea) + (ENG) + Subs (ENG) Ведьмочка
2 | 0

0 | 458

11

20.05.2015 20:44

Зарубежное кино [HDDVDRip / BDRip / WEB-DL / HDTV 1080/720р] Битва за Мён Рян / Myeong-ryang (Ким Хан Мин) [2014 г., Приключения, Военный, Биография, BDRip 1080p] DVO (RUS, Ворон & Wenlana) + VO (RUS, Green Tea) + (ENG) + Original (KOR) + Subs (ENG) Ведьмочка
6 | 0

0 | 386

9

20.05.2015 23:00


Яндекс.Метрика powered by Sphinx


В Н И М А Н И Е
Сайт не распространяет и не хранит электронные версии произведений, а лишь бесплатно и без коммерческой выгоды (не требуя взамен платы,
SMS и т.д.) предоставляет доступ к создаваемому пользователями каталогу ссылок на торрент-файлы, которые содержат только списки хеш-сумм.
Убедительная просьба с жалобами обращаться напрямую к пользователю, разместившему торрент файл.

Вверх