Loading...
Error

Мэри и Марта / Mary and Martha (Филлип Нойс) [2013 г., Драма, HDRip] DVO (RUS, NLS)

Статистика раздачи
Размер:  1,45 GB   |    Зарегистрирован:  1 год 6 месяцев   |    Скачан:  4 раза

Полного источника не было: 1 год 5 месяцев

Сидов:  0  |  0 KB/s  ]   Личеров:  0  |  0 KB/s  ]

* - сиды/пиры с внешних источников

   
 
Автор Сообщение

Ведьмочка Пол:Жен

20-Май-2015 19:58

Мэри и Марта / Mary and Martha
««Two mothers connected by loss. Inspired by hope»»


Страна: Великобритания , США
Год выпуска: 2013
Жанр: Драма
Продолжительность: 01:34:35
Режиссёр: Филлип Нойс
В ролях: Хилари Суэнк, Бренда Блетин, Сэм Клафлин, Фрэнк Грилло, Люкс Хэйни-Джардин, Бонго Мбутума, Йен Редфорд, Джеймс Вудс
Сюжет фильма:
Лишившись сыновей, две совершенно разные женщины отправляются в далёкую Африку, чтобы посвятить себя борьбе с ужасной болезнью, исковеркавшей их судьбы…

Озвучивание:
  • Профессиональный, Двухголосный, Русский [NLS]

Качество видео: HDRip
Формат: AVI

Видео: XviD, 688x384 (16:9), 23.976, ~1982 Кбит/сек
Аудио: AC-3, 192 Кбит/сек, 2 Канала, 48.0 КГц

Rip by:



General
Complete name : \Mary and Martha.2013_HDRip__[scarabey.org].avi
Format : AVI
Format/Info : Audio Video Interleave
File size : 1.45 GiB
Duration : 1h 34mn
Overall bit rate : 2 184 Kbps
Writing application : VirtualDubMod 1.5.10.3 | www.virtualdub-fr.org || (build 2550/release)
Writing library : VirtualDubMod build 2550/release

Video
ID : 0
Format : MPEG-4 Visual
Format profile : Advanced Simple@L5
Format settings, BVOP : 1
Format settings, QPel : No
Format settings, GMC : No warppoints
Format settings, Matrix : Custom
Codec ID : XVID
Codec ID/Hint : XviD
Duration : 1h 34mn
Bit rate : 1 982 Kbps
Width : 688 pixels
Height : 384 pixels
Display aspect ratio : 16:9
Frame rate : 23.976 fps
Color space : YUV
Chroma subsampling : 4:2:0
Bit depth : 8 bits
Scan type : Progressive
Compression mode : Lossy
Bits/(Pixel*Frame) : 0.313
Stream size : 1.31 GiB (91%)
Writing library : XviD 73

Audio
ID : 1
Format : AC-3
Format/Info : Audio Coding 3
Mode extension : CM (complete main)
Format settings, Endianness : Big
Codec ID : 2000
Duration : 1h 34mn
Bit rate mode : Constant
Bit rate : 192 Kbps
Channel(s) : 2 channels
Channel positions : Front: L R
Sampling rate : 48.0 KHz
Bit depth : 16 bits
Compression mode : Lossy
Stream size : 130 MiB (9%)
Alignment : Split accross interleaves
Interleave, duration : 42 ms (1.00 video frame)
Interleave, preload duratio : 500 ms


picpicpicpicpic
Для увеличения картинки щелкните мышкой по превью



Этот торрент недоступен для скачивания без регистрации, однако доступен по публичной magnet-ссылке (источники с публичных трекеров). Перед использованием ссылки прочтите, пожалуйста Пользовательское соглашение, а также как можно дольше оставайтесь на раздаче! Для того, чтобы скачать сам торрент-файл (который видит больше источников), а также для того, чтобы поблагодарить релизера, вам необходимо зарегистрироваться. Если регистрироваться лень - вы можете также попробовать скачать релиз по нашим партнерским ссылкам ниже.

[underverse.su].t54717.torrent
Трекер: Зарегистрирован   [ 20.05.2015 19:58 ]  

Статус: проверено (by Ведьмочка at 20.05.2015 20:05)
Поблагодарили: пока никто не поблагодарил...
Тип торрента: публичный - доступные источники с открытых трекеров: 
Размер: 1,45 GB (занимает 1/3 DVDR, для записи нужно 1 болванка DVDR/RW)
 
 
Похожие темы
Форум Тема Автор Торрент Отв. Посл. сооб.
Зарубежное кино [DVDRip, Low-Res HDRip, и т.д.] Мэри и Марта / Mary and Martha (Филлип Нойс) [2013 г., драма, WEB-DLRip] DVO (NLS) + Original 90ytr90
2 | 1

0 | 498

7

18.01.2014 13:22

Зарубежное кино [HDDVDRip / BDRip / WEB-DL / HDTV 1080/720р] Мэри и Марта / Mary and Martha (Филлип Нойс) [2013 г., Драма, BDRip 720p] DVO (RUS, NLS) + Original (ENG) Ведьмочка
4 | 1

0 | 278

2

20.05.2015 19:50


Яндекс.Метрика powered by Sphinx


В Н И М А Н И Е
Сайт не распространяет и не хранит электронные версии произведений, а лишь бесплатно и без коммерческой выгоды (не требуя взамен платы,
SMS и т.д.) предоставляет доступ к создаваемому пользователями каталогу ссылок на торрент-файлы, которые содержат только списки хеш-сумм.
Убедительная просьба с жалобами обращаться напрямую к пользователю, разместившему торрент файл.

Вверх