Loading...
Error

Железный кулак 2 / The Man with the Iron Fists 2 (Роэль Рейн) [2015 г., Боевик, HDRip] Dub (RUS, Лицензия)

Статистика раздачи
Размер:  1,37 GB   |    Зарегистрирован:  1 год 6 месяцев   |    Скачан:  28 раз

Полного источника не было: 3 месяца 7 дней

Сидов:  0  |  0 KB/s  ]   Личеров:  0  |  0 KB/s  ]

* - сиды/пиры с внешних источников

   
 
Автор Сообщение

Ведьмочка Пол:Жен

20-Май-2015 19:24

Железный кулак 2 / The Man with the Iron Fists 2


Страна: США
Год выпуска: 2015
Жанр: Боевик
Продолжительность: 01:30:25
Режиссёр: Роэль Рейн
В ролях: RZA, Кэри-Хироюки Тагава, Сахайак Бунсанакит, Пим Бабиер, Оушен Хоу, Грэйс Хуанг, Хой Линь, Шири Стивен Лавенштайн, Карл Нг, Дастин Нгуен
Сюжет фильма:
Шахтер Ли Кунг и его жена А Ни обнаружили раненного незнакомца Фаддеуса около деревни и дали ему убежище. После лечения он ввязался в конфликт со зловещим мастером Хо, его мерзким кланом Битл и ужасным Лордом Пи.

Озвучивание:
  • Дублированный, Русский [Лицензия]

Качество видео: HDRip
Формат: AVI

Видео: XviD, 720x400 (16:9), 23.976, ~1772 Кбит/сек
Аудио: AC-3, 192 Кбит/сек, 2 Канала, 48.0 КГц



General
Complete name : \Jelezniy.Kulak.2.2015.D.HDRip.1400MB.avi
Format : AVI
Format/Info : Audio Video Interleave
File size : 1.37 GiB
Duration : 1h 30mn
Overall bit rate : 2 165 Kbps
Writing application : VirtualDubMod 1.5.10.3 | www.virtualdub-fr.org || (build 2550/release)
Writing library : VirtualDubMod build 2550/release

Video
ID : 0
Format : MPEG-4 Visual
Format profile : Advanced Simple@L5
Format settings, BVOP : 1
Format settings, QPel : No
Format settings, GMC : No warppoints
Format settings, Matrix : Custom
Codec ID : XVID
Codec ID/Hint : XviD
Duration : 1h 30mn
Bit rate : 1 772 Kbps
Width : 720 pixels
Height : 400 pixels
Display aspect ratio : 16:9
Frame rate : 23.976 fps
Color space : YUV
Chroma subsampling : 4:2:0
Bit depth : 8 bits
Scan type : Progressive
Compression mode : Lossy
Bits/(Pixel*Frame) : 0.257
Stream size : 1.12 GiB (82%)
Writing library : XviD 73

Audio
ID : 1
Format : AC-3
Format/Info : Audio Coding 3
Mode extension : CM (complete main)
Format settings, Endianness : Big
Codec ID : 2000
Duration : 1h 30mn
Bit rate mode : Constant
Bit rate : 384 Kbps
Channel(s) : 6 channels
Channel positions : Front: L C R, Side: L R, LFE
Sampling rate : 48.0 KHz
Bit depth : 16 bits
Compression mode : Lossy
Stream size : 248 MiB (18%)
Alignment : Split accross interleaves
Interleave, duration : 42 ms (1.00 video frame)
Interleave, preload duratio : 500 ms


picpicpicpicpic
Для увеличения картинки щелкните мышкой по превью



Этот торрент недоступен для скачивания без регистрации, однако доступен по публичной magnet-ссылке (источники с публичных трекеров). Перед использованием ссылки прочтите, пожалуйста Пользовательское соглашение, а также как можно дольше оставайтесь на раздаче! Для того, чтобы скачать сам торрент-файл (который видит больше источников), а также для того, чтобы поблагодарить релизера, вам необходимо зарегистрироваться. Если регистрироваться лень - вы можете также попробовать скачать релиз по нашим партнерским ссылкам ниже.

[underverse.su].t54715.torrent
Трекер: Зарегистрирован   [ 20.05.2015 19:24 ]  

Статус: проверено (by Ведьмочка at 20.05.2015 19:24)
Поблагодарили: пока никто не поблагодарил...
Тип торрента: публичный - доступные источники с открытых трекеров: 
Размер: 1,37 GB (занимает 0,31 DVDR, для записи нужно 1 болванка DVDR/RW)
 
 
Похожие темы
Форум Тема Автор Торрент Отв. Посл. сооб.
Зарубежное кино [DVDRip, Low-Res HDRip, и т.д.] Железный кулак / The Man with the Iron Fists (RZA) [2012 г., боевик, HDRip] Dub [лицензия] RG NewCinema
2 | 0

0 | 875

31

26.03.2013 12:15

Зарубежное кино [DVDRip, Low-Res HDRip, и т.д.] Железный кулак / Человек с железными кулаками / The Man with the Iron Fists (RZA / RZA) [2012 г., боевик, HDRip-AVC] Dub Gaarochi
10 | 0

0 | 887

8

08.04.2013 12:21


Яндекс.Метрика powered by Sphinx


В Н И М А Н И Е
Сайт не распространяет и не хранит электронные версии произведений, а лишь бесплатно и без коммерческой выгоды (не требуя взамен платы,
SMS и т.д.) предоставляет доступ к создаваемому пользователями каталогу ссылок на торрент-файлы, которые содержат только списки хеш-сумм.
Убедительная просьба с жалобами обращаться напрямую к пользователю, разместившему торрент файл.

Вверх